Расколотый / Shattered / Сезон 1 / Серия 1-13 (13) (Пэт Уильямс, Рик Розенталь, Хелен Шейвер) [2010 г., криминал, драма, мистика, SATRip] (Universal Russia)

Ответить на тему
 
Автор
Сообщение

awk05 ®

Пол:

Стаж: 4 года 5 месяцев

Сообщений: 1352

Репутация: 275 [+] [-]

Откуда: Западная Украина Ривне

Пост 22-Янв-2014 23:49

[Цитировать] 

--Расколотый / Shattered --Год выпуска: 2010
Страна: Канада
Жанр: криминал, драма, мистика
Сезон/Серия: Сезон:1 /Серия 1-13 из 13
Продолжительность: 13 х ~ 00:44:00
Перевод: Профессиональй (многоголосый, закадровый) Universal Russia
Субтитры: отсутствуют--
Режиссер: Пэт Уильямс, Рик Розенталь, Хелен Шейвер--
В ролях: Каллум Кит Ренни(Det. Ben Sullivan), Брайан Маркинсон(Dr. Ryan DiSilvio), Камилль Салливан(Det. Amy Lynch), Кле Беннетт(Det. John Holland), Нимет Кандзи(Vina Chatterji), Тай Олссон(Superintendent Kevin Whitehill), Майкл Эклунд(Nick Ducet), Молли Паркер(Ella Sullivan), Мартин Камминс(Det. Terry Rhodes), Карен ЛеБлан(Team Commander Pam Garrett)--
Описание: Бен Салливан – жесткий и умный детектив убойного отдела с синдромом множественной личности.Его новая напарница – Эми Линч . Каждую неделю они будут работать над новыми делами, а Бен постарается справляться со всеми сложностями его жизни как полицейского, так и человека с этим синдромом, не зная когда и какая личность проявится следующей.--
Качество: SATRip
Формат: AVI
Видео кодек: XviD
Аудио кодек: MP3
Видео: 704x448 (16:10), 23.976 fps, 795 kbps avg, 0.101 bit/pixel
Аудио RUS: 48 kHz, MPEG Layer 3, 2 ch, ~128.00 kbps avg
Аудио ENG: 48 kHz, MPEG Layer 3, 2 ch, ~128.00 kbps avg--
--

MI

Общее
Полное имя : E:\Сериалы новые\Shattered - Season 1 (Universal)\Shattered.s01e01.rus.eng.filmgate.tv.avi
Формат : AVI
Формат/Информация : Audio Video Interleave
Размер файла : 347 Мбайт
Продолжительность : 45 м.
Общий поток : 1066 Кбит/сек
Программа кодирования : VirtualDubMod 1.6.0.0 SURROUND (build 2560/release)
Библиотека кодирования : VirtualDubMod build 2560/release
Видео
Идентификатор : 0
Формат : MPEG-4 Visual
Профиль формата : Advanced Simple@L5
Параметр BVOP формата : 4
Параметр QPel формата : Нет
Параметр GMC формата : Без точки перехода
Параметр матрицы формата : Default (H.263)
Режим смешивания : Сжатый битовый поток
Идентификатор кодека : XVID
Идентификатор кодека/Подсказка : XviD
Продолжительность : 45 м.
Битрейт : 795 Кбит/сек
Ширина : 704 пикселя
Высота : 448 пикселей
Соотношение сторон : 16:10
Частота кадров : 25,000 кадров/сек
Цветовое пространство : YUV
Субдискретизация насыщенности : 4:2:0
Битовая глубина : 8 бит
Тип развёртки : Прогрессивная
Метод сжатия : С потерями
Бит/(Пиксели*Кадры) : 0.101
Размер потока : 259 Мбайт (75%)
Библиотека кодирования : XviD 57
Аудио #1
Идентификатор : 1
Формат : MPEG Audio
Версия формата : Version 1
Профиль формата : Layer 3
Режим : Joint stereo
Расширение режима : MS Stereo
Идентификатор кодека : 55
Идентификатор кодека/Подсказка : MP3
Продолжительность : 45 м.
Вид битрейта : Постоянный
Битрейт : 128 Кбит/сек
Каналы : 2 канала
Частота : 48,0 КГц
Метод сжатия : С потерями
Размер потока : 41,7 Мбайт (12%)
Выравнивание : Разделение по промежуткам
Продолжительность промежутка : 40 мс. (1,00 видеокадр)
Время предзагрузки промежутка : 500 мс.
Аудио #2
Идентификатор : 2
Формат : MPEG Audio
Версия формата : Version 1
Профиль формата : Layer 3
Режим : Joint stereo
Расширение режима : MS Stereo
Идентификатор кодека : 55
Идентификатор кодека/Подсказка : MP3
Продолжительность : 45 м.
Вид битрейта : Постоянный
Битрейт : 128 Кбит/сек
Каналы : 2 канала
Частота : 48,0 КГц
Метод сжатия : С потерями
Размер потока : 41,7 Мбайт (12%)
Выравнивание : Разделение по промежуткам
Продолжительность промежутка : 40 мс. (1,00 видеокадр)
Время предзагрузки промежутка : 500 мс.

_________________
[Торрент-статистика]
[Профиль]  [ЛС] 
Показать сообщения:    
Ответить на тему

Текущее время: Сегодня 16:43

Часовой пояс: GMT + 4



Вы не можете начинать темы
Вы не можете отвечать на сообщения
Вы не можете редактировать свои сообщения
Вы не можете удалять свои сообщения
Вы не можете голосовать в опросах
Вы не можете прикреплять файлы к сообщениям
Вы не можете скачивать файлы