Квантовый скачок / Quantum Leap / Сезоны: 1-5 (5) / Серии: 1-97 из 97 (James Whitmore Jr., Joe Napolitano, Michael Zinberg) [1989-1993, боевик, детектив, драма, научная фантастика, приключения, DVDRip-AVC] MVO (СТС) + Eng Subs + Original

Ответить на тему
 
Автор
Сообщение

awk05 ®

Пол:

Стаж: 4 года 5 месяцев

Сообщений: 1352

Репутация: 275 [+] [-]

Откуда: Западная Украина Ривне

Пост 21-Янв-2014 06:12

[Цитировать] 

--Квантовый скачок / Quantum Leap-- Год выпуска: 1989-1993
Страна: США
Жанр: боевик, детектив, драма, научная фантастика, приключения, семейное кино
Сезон/Серия: Сезон:1-5 /Серия 1-97 из 97
Продолжительность: 97 х ~ 00:48:00 минут
Перевод: Профессиональный (многоголосый закадровый) СТС
Русские субтитры: нет--
Режиссёры: James Whitmore Jr. (Джеймс Уитмор мл.), Joe Napolitano (Джо Наполитано), Michael Zinberg (Майкл Цинберг), Alan J. Levi (Алан Дж. Леви), Michael W. Watkins (Майкл В. Уоткинс)...--
Сценаристы: Donald P. Bellisario (Дональд П. Беллисарио), Deborah Pratt (Дебора Прэтт), Paul Brown (Пол Браун), Tommy Thompson (Томми Томпсон), Chris Ruppenthal (Крис Руппенталь)...--
В ролях: Scott Bakula (Скотт Бакула) — Dr. Sam Beckett, Dean Stockwell (Дин Стокуэлл) — Admiral Al Calavicci, Deborah Pratt (Дебора Прэтт) — Ziggy, Dennis Wolfberg (Деннис Уолфберг) — Gooshie, W.K. Stratton (В.К. Стрэттон) — Attorney Lawrence «Larry» Stanton III, Richard Partlow (Ричард Пэртлоу) — Reporter, Fran Bennett (Фран Беннетт) — Marie Billings, Brad Silverman (Брэд Силверман) — Jimmy LaMotta, Michael Bellisario (Майкл Беллисарио) — Billy, Carolyn Seymour (Кэролин Сеймур) — Zoey...--
Описание: 1995 год. Разработав теорию о том, что человек может путешествовать во времени в пределах продолжительности собственной жизни, доктор Сэмуэль Беккет на базе в пустынях Нью-Мексико (США) возглавил сверхсекретный проект, названный «Квантовый скачок». Оказавшись перед необходимостью подтвердить свою теорию или потерять финансирование, доктор Сэм Беккет шагнул в квантовый ускоритель и исчез.
С этого момента Сэм перемещается в тела других людей в определённые моменты их прошлого, чтобы изменить историю таким образом, чтобы предотвратить беду, случившуюся когда-то давно. Спасти жизнь человеку, сохранить семью, не оставить нераскрытым преступление. Как только миссия завершена, Сэм немедленно перемещается. В этом ему помогает адмирал Альберт Калавичи, он же Эл, который работал вместе с ним над проектом «Квантовый скачок». Эл может проецировать свою голограмму в прошлое, но её могут видеть и слышать только Сэм, животные, маленькие дети и сумасшедшие. Он с помощью суперкомпьютера «Умник» выясняет, что именно Сэм должен изменить.
Ни Сэм, ни Эл не понимают до конца природу тех сил, что управляют квантовыми скачками — переходами во времени. Переход из одного времени в другое является неконтролируемым и может произойти в самое неподходящее время, тем не менее, для героев очевидно, что он контролируется некими высшими духовными силами.
Сэм появляется в прошлом, вооруженный новейшими знаниями из области естественных наук, медицины, психологии. Но больше всего ученому помогают врожденные доброта и чувство справедливости. На протяжении всего сериала доктор Беккет, оказавшийся в ловушке прошлого, перемещается из одной жизни в другую, борется с несправедливостью и каждый раз надеется, что следующий квантовый скачок вернет его домой и позволит стать самим собой.--

Качество: DVDRip-AVC
Формат: MKV
Видео кодек: H.264
Аудио кодек: AC3
Видео: AVC, 720x480 (4:3), 23.976 fps, ~1575 kbps, ~0.190 bit/pixel
Аудио 1: AC-3, 48.0 kHz, 2 ch., 192 kbps [русский многоголосый закадровый перевод СТС]
Аудио 2: AC-3, 48.0 kHz, 2 ch., 192 kbps [английский]
Субтитры: английские (встроенные, отключаемые)-- --

MediaInfo

General
Unique ID : 240494662195881447360964135276997688945 (0xB4ED964EBB0AAEF0B96B994983DEBE71)
Complete name : C:\Quantum.Leap.s03e12.Eight.And.A.Half.Months.mkv
Format : Matroska
File size : 641 MiB
Duration : 48mn 24s
Overall bit rate : 1 852 Kbps
Encoded date : UTC 2013-03-06 16:03:31
Writing application : mkvmerge v5.0.1 ('Es ist Sommer') built on Oct 9 2011 11:55:43
Writing library : libebml v1.2.2 + libmatroska v1.3.0
Video
ID : 1
Format : AVC
Format/Info : Advanced Video Codec
Format profile : High@L3.1
Format settings, CABAC : Yes
Format settings, ReFrames : 8 frames
Codec ID : V_MPEG4/ISO/AVC
Duration : 48mn 24s
Bit rate : 1 466 Kbps
Width : 720 pixels
Height : 480 pixels
Display aspect ratio : 4:3
Original display aspect ratio : 4:3
Frame rate : 23.976 fps
Standard : NTSC
Color space : YUV
Chroma subsampling : 4:2:0
Bit depth : 8 bits
Scan type : Progressive
Bits/(Pixel*Frame) : 0.177
Stream size : 496 MiB (77%)
Writing library : x264 core 112
Encoding settings : cabac=1 / ref=8 / deblock=1:0:0 / analyse=0x3:0x133 / me=umh / subme=9 / psy=1 / psy_rd=1.00:0.00 / mixed_ref=1 / me_range=64 / chroma_me=1 / trellis=2 / 8x8dct=1 / cqm=0 / deadzone=21,11 / fast_pskip=1 / chroma_qp_offset=-2 / threads=12 / sliced_threads=0 / nr=0 / decimate=1 / interlaced=0 / constrained_intra=0 / bframes=8 / b_pyramid=2 / b_adapt=2 / b_bias=0 / direct=3 / weightb=1 / open_gop=0 / weightp=2 / keyint=240 / keyint_min=23 / scenecut=40 / intra_refresh=0 / rc_lookahead=50 / rc=2pass / mbtree=1 / bitrate=1466 / ratetol=1.0 / qcomp=0.60 / qpmin=3 / qpmax=51 / qpstep=4 / cplxblur=20.0 / qblur=0.5 / ip_ratio=1.40 / aq=1:1.00
Language : English
Color primaries : BT.601-6 525, BT.1358 525, BT.1700 NTSC, SMPTE 170M
Transfer characteristics : BT.709-5, BT.1361
Matrix coefficients : BT.601-6 525, BT.1358 525, BT.1700 NTSC, SMPTE 170M
Audio #1
ID : 2
Format : AC-3
Format/Info : Audio Coding 3
Mode extension : CM (complete main)
Codec ID : A_AC3
Duration : 48mn 24s
Bit rate mode : Constant
Bit rate : 192 Kbps
Channel(s) : 2 channels
Channel positions : Front: L R
Sampling rate : 48.0 KHz
Bit depth : 16 bits
Compression mode : Lossy
Stream size : 66.5 MiB (10%)
Title : MVO CTC
Language : Russian
Audio #2
ID : 3
Format : AC-3
Format/Info : Audio Coding 3
Format profile : Dolby Digital
Mode extension : CM (complete main)
Codec ID : A_AC3
Duration : 48mn 24s
Bit rate mode : Constant
Bit rate : 192 Kbps
Channel(s) : 2 channels
Channel positions : Front: L R
Sampling rate : 48.0 KHz
Bit depth : 16 bits
Compression mode : Lossy
Stream size : 66.5 MiB (10%)
Language : English
Text
ID : 4
Format : UTF-8
Codec ID : S_TEXT/UTF8
Codec ID/Info : UTF-8 Plain Text
Title : English
Language : English
Menu
00:00:00.000 : en:Chapter 1
00:03:10.064 : en:Chapter 2
00:23:50.137 : en:Chapter 3
00:36:09.292 : en:Chapter 4

Скриншоты


_________________
[Торрент-статистика]
[Профиль]  [ЛС] 
Показать сообщения:    
Ответить на тему

Текущее время: Сегодня 18:20

Часовой пояс: GMT + 4



Вы не можете начинать темы
Вы не можете отвечать на сообщения
Вы не можете редактировать свои сообщения
Вы не можете удалять свои сообщения
Вы не можете голосовать в опросах
Вы не можете прикреплять файлы к сообщениям
Вы не можете скачивать файлы