Банши / Banshee / Сезон: 2 / Серии: 1-10 из 10 (Грег Яйтанс, Оле Кристиан Мадсен, С.Дж. Кларксон) [2014 г., боевик, триллер, драма, криминал, детектив, HDTVRip] (Amedia)

Ответить на тему
 
Автор
Сообщение

awk05 ®

Пол:

Стаж: 4 года 5 месяцев

Сообщений: 1352

Репутация: 275 [+] [-]

Откуда: Западная Украина Ривне

Пост 20-Янв-2014 03:57

[Цитировать] 

-- Банши / Banshee -- Год выпуска: 2014
Страна: США, Your Face Goes Here Entertainment, Cinemax
Жанр: боевик, триллер, драма, криминал, детектив
Сезон/Серия: Сезон: 2 Серии: 1-10 из 10
Перевод: Профессиональный (многоголосый, закадровый) Amedia
Продолжительность: 10 х ~ 00:50:00
Субтитры: нет--Режиссёр: Грег Яйтанс, Оле Кристиан Мадсен, С.Дж. Кларксон--В ролях: Энтони Старр (Lucas Hood), Ивана Миличевич (Carrie Hopewell), Ульрих Томсен (Kai Proctor), Хун Ли (Job), Фрэнки Фэйзон (Sugar Bates), Райанн Шэйн (Deva Hopewell), Лили Симмонс (Rebecca Bowman), Мэтт Сервитто (Deputy Brock Lotus), Триесте Келли Данн (Deputy Siobhan Kelly), Деметриус Гросс (Deputy Emmett Yawners)--Описание: Главный герой Banshee — бывший заключенный и профессиональный вор, который присваивает себе личность шерифа Банши (городка в Пенсильвании), где он продолжает нарушать закон, хотя ему не дают покоя гангстеры, которых он предал много лет назад.--Качество: HDTVRip
Формат: AVI
Видео кодек: XviD
Аудио кодек: AC3
Видео: 720х400 (16:9) , 23.976 fps , ~1479 kbps avg , 0.214 bit/pixel
Аудио: 2 channels (L, R) , 48 kHz , 192 kbps avg |Amedia|-- --

MediaInfo

Общее
Полное имя : E:\Сериалы новые\Банши сезон 2 [SD]\Banshee.S02E01.HDTVRip.avi
Формат : AVI
Формат/Информация : Audio Video Interleave
Размер файла : 597 Мбайт
Продолжительность : 49 м.
Общий поток : 1680 Кбит/сек
Видео
Идентификатор : 0
Формат : MPEG-4 Visual
Профиль формата : Advanced Simple@L5
Параметр BVOP формата : 2
Параметр QPel формата : Нет
Параметр GMC формата : Без точки перехода
Параметр матрицы формата : Выборочная
Идентификатор кодека : XVID
Идентификатор кодека/Подсказка : XviD
Продолжительность : 49 м.
Битрейт : 1479 Кбит/сек
Ширина : 720 пикселей
Высота : 400 пикселей
Соотношение сторон : 16:9
Частота кадров : 23,976 кадра/сек
Цветовое пространство : YUV
Субдискретизация насыщенности : 4:2:0
Битовая глубина : 1 бит
Тип развёртки : Прогрессивная
Метод сжатия : С потерями
Бит/(Пиксели*Кадры) : 0.214
Размер потока : 526 Мбайт (88%)
Библиотека кодирования : XviD 64
Аудио
Идентификатор : 1
Формат : AC-3
Формат/Информация : Audio Coding 3
Расширение режима : CM (complete main)
Параметр Endianness формата : Big
Идентификатор кодека : 2000
Продолжительность : 49 м.
Продолжительность оригинала : 49 м.
Вид битрейта : Постоянный
Битрейт : 192 Кбит/сек
Каналы : 2 канала
Расположение каналов : Front: L R
Частота : 48,0 КГц
Битовая глубина : 16 бит
Метод сжатия : С потерями
Размер потока : 68,2 Мбайт (11%)
Выравнивание : Соединение по промежуткам
Продолжительность промежутка : 42 мс. (1,00 видеокадр)

Скриншоты

Внимание! Раздача ведётся путём добавления новых серий!

Внимание! Раздача ведётся путём добавления новых серий; при каждом добавлении создётся новый торрент. Чтобы начать докачку новой серии, пользователям необходимо сделать следующее:
(1) остановить скачивание,
(2) удалить старый торрент у себя из клиента (старые серии удалять не надо),
(3) скачать новый торрент и запустить его у себя в клиенте вместо старого, при этом указать клиенту путь в старую папку куда и должно происходить скачивание новых серий.
Ваш клиент при этом должен произвести хеширование (проверку) старой папки (если не производит сам - помогите ему сделать это), и будет докачивать только те серии которых у вас ещё нет. Старые серии при этом не удаляются, а продолжают раздаваться!
Eсли вы уже удалили старые серии, то предотвратить повторную закачку старых серий можно, отжав галочку в соответсвующих местах при запуске нового торрента.

_________________


Последний раз редактировалось: awk05 (2014-03-17 15:51), всего редактировалось 6 раз(а)
[Торрент-статистика]
[Профиль]  [ЛС] 

FOMA

Стаж: 2 года 10 месяцев

Сообщений: 6

Репутация: 0 [+] [-]

Пост 23-Фев-2014 19:28 (спустя 1 месяц 3 дня)

[Цитировать] 

А в нормальном HD-качестве сериалы на этом ресурсе бывают?
[Торрент-статистика]
[Профиль]  [ЛС] 

ArtZak

Пол:

Стаж: 5 лет 1 месяц

Сообщений: 3008

Репутация: 1363 [+] [-]

Откуда: Россия

Пост 23-Фев-2014 19:41 (спустя 12 минут)

[Цитировать] 

43926А в нормальном HD-качестве сериалы на этом ресурсе бывают?
бывают. Пользуйтесь поиском.
[Торрент-статистика]
[Профиль]  [ЛС] 

FOMA

Стаж: 2 года 10 месяцев

Сообщений: 6

Репутация: 0 [+] [-]

Пост 23-Фев-2014 19:52 (спустя 10 минут)

[Цитировать] 

ArtZak,
не поможете Banshee второй сезон в 720p с битрейтингом от 4000 найти на ресурсе.
У меня что-то никак не получается.
Спасибо.
[Торрент-статистика]
[Профиль]  [ЛС] 

ArtZak

Пол:

Стаж: 5 лет 1 месяц

Сообщений: 3008

Репутация: 1363 [+] [-]

Откуда: Россия

Пост 23-Фев-2014 20:01 (спустя 9 минут)

[Цитировать] 

43929не поможете Banshee второй сезон в 720p с битрейтингом от 4000 найти на ресурсе.
720 этого сериала у нас нет - могу выложить, но битрейт Вы просите минимум 4000, а это уже исходник HDTV 1080i с битрейтом 5221 Kbps...
У найденной мною 720-ки - битрейт 2250 Kbps...
[Торрент-статистика]
[Профиль]  [ЛС] 

FOMA

Стаж: 2 года 10 месяцев

Сообщений: 6

Репутация: 0 [+] [-]

Пост 23-Фев-2014 20:07 (спустя 6 минут)

[Цитировать] 

2250 это тряпочка ac Этого добра много где есть.
Как рутрекер и Hdклуб прогнулись перед лобби правообладателей, так и сериалы негде стало посмотреть в нормальном качестве....
[Торрент-статистика]
[Профиль]  [ЛС] 

Волк

Пол:

Стаж: 5 лет 1 месяц

Сообщений: 689

Репутация: 292 [+] [-]

Откуда: Армения

Пост 23-Фев-2014 21:13 (спустя 1 час 6 минут)

[Цитировать] 

FOMA, Наслаждайтесь без тряпочек http://brodim.com/viewtopic.php?t=11366 ab
[Торрент-статистика]
[Профиль]  [ЛС] 

FOMA

Стаж: 2 года 10 месяцев

Сообщений: 6

Репутация: 0 [+] [-]

Пост 25-Фев-2014 06:44 (спустя 1 день 9 часов)

[Цитировать] 

Волк,
огромное спасибо!
[Торрент-статистика]
[Профиль]  [ЛС] 

nuH7BuH

Стаж: 2 года 3 месяца

Сообщений: 1

Репутация: 0 [+] [-]

Пост 09-Янв-2015 17:01 (спустя 10 месяцев 12 дней)

[Цитировать] 

Большое спасибо за раздачу 2-го сезона ab
[Торрент-статистика]
[Профиль]  [ЛС] 
Показать сообщения:    
Ответить на тему

Текущее время: Сегодня 18:23

Часовой пояс: GMT + 4



Вы не можете начинать темы
Вы не можете отвечать на сообщения
Вы не можете редактировать свои сообщения
Вы не можете удалять свои сообщения
Вы не можете голосовать в опросах
Вы не можете прикреплять файлы к сообщениям
Вы не можете скачивать файлы