Кайл XY / Kyle XY / Сезон: 1-3 / Серии: 1-43 из 43 (Майкл Робисан / Michael Robison) [2006-2009, Фантастика, Драма, Детектив, DVDRip] MVO (AXN Sci-Fi)

Ответить на тему
 
Автор
Сообщение

awk05 ®

Пол:

Стаж: 4 года 5 месяцев

Сообщений: 1352

Репутация: 275 [+] [-]

Откуда: Западная Украина Ривне

Пост 19-Янв-2014 18:25

[Цитировать] 

--Кайл XY / Kyle XY«Who is Kyle XY?»--
Год выпуска: 2006-2009
Страна: США, Канада
Жанр: Фантастика, Драма, Детектив
Сезон/Серия: Сезон:1-3 /Серия 1-43 из 43
Продолжительность: 43 х 00:43:16
Перевод: Профессиональный многоголосый закадровый AXN Sci-Fi
Русские субтитры: нет--Режиссёр: Майкл Робисан / Michael Robison. Гай Норман Би / Guy Norman Bee--В ролях: Мэтт Даллас, Маргарит МакИнтайр, Брюс Томас, Эйприл Мэтсон, Жан-Люк Билодо, Крис Оливеро, Кирстен Праут, Джейми Александр, Николас Лиа, Челан Симмонс, Магда Апанович, Мартин Камминс, Леа Кейрнс, Джош Цуккерман, Дж. Эдди Пек.--Описание: Окружённый тайной, Кайл смотрит на мир глазами новорожденного ребёнка, увидит ли он, что опасности постоянно будут встречаться на его пути.
Кайл приходит в себя посреди леса. Он не знает кто он, откуда, как сюда попал. На первой же минуте его новой (новой ли) жизни он встречается лицом к лицу с гремучей змеёй. Он не умеет говорить, есть, пить, спать. Он не умеет ничего. Он — новорожденный. Кроме всего прочего у него нет пупка.
Кайл попадает в семью, где его окружают заботой и вниманием, но вокруг столько непонимания и опасностей. Его никто не ищет, но за ним следят.--Качество: DVDRip
Формат: AVI
Видео кодек: XviD
Аудио кодек: MP3
Видео: 624x352, 640x352, (1.77:1), 23.976 fps, XviD MPEG-4 ~ 997 kbps avg, ~ 0.189 bit/pixel
Аудио Rus: 48 kHz, MPEG Layer 3, 2 ch, ~128.00 kbps avg
Аудио Eng:48 kHz, MPEG Layer 3, 2 ch, ~128.00 kbps avg[-- -

MediaInfo

Общее
Полное имя : D:\раздачи\Kail.xy.1-3.sezoni.DVDRip\Kail.xy.1.sezon\Kail.xy.1.sezon.01.serija.iz.10.2006.XviD.DVDRip.avi
Формат : AVI
Формат/Информация : Audio Video Interleave
Размер файла : 389 Мбайт
Продолжительность : 42 м.
Общий поток : 1267 Кбит/сек
Программа кодирования : VirtualDubMod 1.5.10.2 (build 2540/release)
Библиотека кодирования : VirtualDubMod build 2540/release
Видео
Идентификатор : 0
Формат : MPEG-4 Visual
Профиль формата : Advanced Simple@L5
Параметр BVOP формата : 2
Параметр QPel формата : Нет
Параметр GMC формата : Без точки перехода
Параметр матрицы формата : Default (H.263)
Режим смешивания : Сжатый битовый поток
Идентификатор кодека : XVID
Идентификатор кодека/Подсказка : XviD
Продолжительность : 42 м.
Битрейт : 997 Кбит/сек
Ширина : 624 пикселя
Высота : 352 пикселя
Соотношение сторон : 16:9
Частота кадров : 23,976 кадра/сек
Цветовое пространство : YUV
Субдискретизация насыщенности : 4:2:0
Битовая глубина : 8 бит
Тип развёртки : Прогрессивная
Метод сжатия : С потерями
Бит/(Пиксели*Кадры) : 0.189
Размер потока : 306 Мбайт (79%)
Библиотека кодирования : XviD 1.1.0 (UTC 2005-11-22)
Аудио #1
Идентификатор : 1
Формат : MPEG Audio
Версия формата : Version 1
Профиль формата : Layer 3
Режим : Joint stereo
Расширение режима : MS Stereo
Идентификатор кодека : 55
Идентификатор кодека/Подсказка : MP3
Продолжительность : 42 м.
Вид битрейта : Постоянный
Битрейт : 128 Кбит/сек
Каналы : 2 канала
Частота : 48,0 КГц
Метод сжатия : С потерями
Размер потока : 39,3 Мбайт (10%)
Выравнивание : Соединение по промежуткам
Продолжительность промежутка : 42 мс. (1,00 видеокадр)
Время предзагрузки промежутка : 504 мс.
Аудио #2
Идентификатор : 2
Формат : MPEG Audio
Версия формата : Version 1
Профиль формата : Layer 3
Режим : Joint stereo
Расширение режима : MS Stereo
Идентификатор кодека : 55
Идентификатор кодека/Подсказка : MP3
Продолжительность : 42 м.
Вид битрейта : Постоянный
Битрейт : 128 Кбит/сек
Каналы : 2 канала
Частота : 48,0 КГц
Метод сжатия : С потерями
Размер потока : 39,3 Мбайт (10%)
Выравнивание : Соединение по промежуткам
Продолжительность промежутка : 42 мс. (1,00 видеокадр)
Время предзагрузки промежутка : 504 мс.

_________________
[Торрент-статистика]
[Профиль]  [ЛС] 

NIKUPER

Пол:

Стаж: 5 лет

Сообщений: 66

Репутация: 31 [+] [-]

Пост 19-Янв-2014 18:38 (спустя 13 минут)

[Цитировать] 

Клёвый сериал. Спасибо за раздачу. aa

_________________
[Торрент-статистика]
[Профиль]  [ЛС] 
Показать сообщения:    
Ответить на тему

Текущее время: Сегодня 06:22

Часовой пояс: GMT + 4



Вы не можете начинать темы
Вы не можете отвечать на сообщения
Вы не можете редактировать свои сообщения
Вы не можете удалять свои сообщения
Вы не можете голосовать в опросах
Вы не можете прикреплять файлы к сообщениям
Вы не можете скачивать файлы