Карточный домик / House Of Cards / Сезон: 1 / Серии: 1-13 из 13 (Дэвид Финчер) [2013, Драма, WEBRip] MVO (Первый Канал)

Ответить на тему
 
Автор
Сообщение

awk05 ®

Пол:

Стаж: 4 года 5 месяцев

Сообщений: 1352

Репутация: 275 [+] [-]

Откуда: Западная Украина Ривне

Пост 18-Янв-2014 11:18

[Цитировать] 

--Карточный домик / House Of Cards-- Год выпуска: 2013
Страна: США
Жанр: Драма
Сезон/Серия: Сезон:1 /Серия 1-13 из 13
Продолжительность: 13 х 00:55:00
Перевод: Профессиональный (многоголосый закадровый) Первый Канал
Русские субтитры: нет--Режиссёр: Дэвид Финчер--В ролях: Кевин Спейси, Робин Райт, Кейт Мара, Кори Столл, Майкл Келли, Сакина Джэффри, Кристен Коннолли, Ларри Пайн, Нэйтан Дарроу, Сандрин Холт--Описание: Безжалостный конгрессмен, Фрэнсис Андервуд, и его амбициозная жена Клэр, не остановятся ни перед чем, чтобы завоевать все. Эта жестокая политическая драма пропитанная жадностью, сексом, любовью и коррупцией.--Качество: WEBRip
Формат: AVI
Видео кодек: XviD
Аудио кодек: MP3
Видео: 720x352 (2.05:1), 29.970 fps, XviD build 50 ~1351 kbps avg, 0.18 bit/pixel
Аудио: 44.100 kHz, MPEG Layer 3, 2 ch, ~128.00 kbps avg-- --

MediaInfo

Полное имя : C:\Users\root\Downloads\House of Cards Season 1\House.of.Cards.2013.S01E01.avi
Формат : AVI
Формат/Информация : Audio Video Interleave
Размер файла : 598 Мбайт
Продолжительность : 56 м.
Общий поток : 1491 Кбит/сек
Программа кодирования : VirtualDubMod 1.5.10.2 (build 2540/release)
Библиотека кодирования : VirtualDubMod build 2540/release
Видео
Идентификатор : 0
Формат : MPEG-4 Visual
Профиль формата : Advanced Simple@L5
Параметр BVOP формата : 1
Параметр QPel формата : Нет
Параметр GMC формата : Без точки перехода
Параметр матрицы формата : Выборочная
Идентификатор кодека : XVID
Идентификатор кодека/Подсказка : XviD
Продолжительность : 56 м.
Битрейт : 1351 Кбит/сек
Ширина : 720 пикселей
Высота : 352 пикселя
Соотношение сторон : 2,045
Частота кадров : 29,970 кадров/сек
Цветовое пространство : YUV
Субдискретизация насыщенности : 4:2:0
Битовая глубина : 8 бит
Тип развёртки : Прогрессивная
Метод сжатия : С потерями
Бит/(Пиксели*Кадры) : 0.178
Размер потока : 542 Мбайт (91%)
Библиотека кодирования : XviD 1.2.1 (UTC 2008-12-04)
Аудио
Идентификатор : 1
Формат : MPEG Audio
Версия формата : Version 1
Профиль формата : Layer 3
Режим : Joint stereo
Идентификатор кодека : 55
Идентификатор кодека/Подсказка : MP3
Продолжительность : 56 м.
Вид битрейта : Постоянный
Битрейт : 128 Кбит/сек
Каналы : 2 канала
Частота : 44,1 КГц
Метод сжатия : С потерями
Размер потока : 51,4 Мбайт (9%)
Выравнивание : Разделение по промежуткам
Продолжительность промежутка : 33 мс. (1,00 видеокадр)
Время предзагрузки промежутка : 500 мс.

Скриншоты


_________________
[Торрент-статистика]
[Профиль]  [ЛС] 
Показать сообщения:    
Ответить на тему

Текущее время: Сегодня 06:23

Часовой пояс: GMT + 4



Вы не можете начинать темы
Вы не можете отвечать на сообщения
Вы не можете редактировать свои сообщения
Вы не можете удалять свои сообщения
Вы не можете голосовать в опросах
Вы не можете прикреплять файлы к сообщениям
Вы не можете скачивать файлы