Одиссей / Odysseus / Сезон: 1 / Серии: 1-12 (12) (Стефан Джусти / Stephane Giusti) [2013, драма, приключения, HDTVRip, WEB-DLRip] MVO (BaibaKo)

Ответить на тему
 
Автор
Сообщение

awk05 ®

Пол:

Стаж: 4 года 5 месяцев

Сообщений: 1352

Репутация: 275 [+] [-]

Откуда: Западная Украина Ривне

Пост 18-Янв-2014 09:37

[Цитировать] 

--Одиссей / Odysseus-- Год выпуска: 2013
Страна: Франция, Португалия, Италия
Жанр: драма, приключения
Сезон/Серия: Сезон:1 /Серия 1-12 из 12
Продолжительность: 12 х ~ 00:42:00 минуты
Перевод: Профессиональный (многоголосый, закадровый) - BaibaKo
Субтитры: Нет--Режиссёр: Стефан Джусти / Stephane Giusti--В ролях: Катэрина Мурино, Алессио Бони, Нильс Шнайдер, Карина Тэста, Бруно Тодескини, Карло Брандт, Виттория Сконьямильо, Джозеф Малерба, Огустен Легран и др.--Описание: Греция. VIII век до н.э. Вот уже 10 лет, как закончилась Троянская война. Царь Итаки Одиссей до сих пор не вернулся домой. Только его семья продолжает ждать и верить, что он жив. Стать царем вожделеют многие и настойчиво требуют от царицы Пенелопы вступить в повторный брак. Напряжение возрастает, и наступает момент, когда претенденты на трон больше не желают ждать.--Качество: HDTVRip (1-5), WEB-DLRip (6-12)
Формат: AVI
Видео кодек: XviD
Аудио кодек: MP3
Видео: 720x400 (16:9), 25.000 кадра/сек, 1350 Кбит/сек, 0.190 Бит/(Пиксели*Кадры)
Аудио 1: 2 канала Front: L R, 48,0 КГц, 128 Кбит/сек |BaibaKo|
Аудио 2: 2 канала Front: L R, 48,0 КГц, 128 Кбит/сек |Original|--
Озвучка: Ольга Мотрич, Татьяна Оболевич, Владимир Курдов, Артемий Мирон и Виталий Ткаченко
Перевод: Алина Немирова
Сведение: Виталий Ткаченко
Постер: tvblog-- --

Скриншоты


MediaInfo

Общее
Формат : AVI
Формат/Информация : Audio Video Interleave
Размер файла : 500 Мбайт
Продолжительность : 46 м.
Общий поток : 1520 Кбит/сек
Программа кодирования : VirtualDubMod 1.5.10.2 (build 2540/release)
Библиотека кодирования : VirtualDubMod build 2540/release
Видео
Идентификатор : 0
Формат : MPEG-4 Visual
Профиль формата : Advanced Simple@L5
Параметр BVOP формата : 1
Параметр QPel формата : Нет
Параметр GMC формата : Без точки перехода
Параметр матрицы формата : Выборочная
Идентификатор кодека : XVID
Идентификатор кодека/Подсказка : XviD
Продолжительность : 46 м.
Битрейт : 1250 Кбит/сек
Ширина : 720 пикселей
Высота : 400 пикселей
Соотношение сторон : 16:9
Частота кадров : 25,000 кадров/сек
Цветовое пространство : YUV
Субдискретизация насыщенности : 4:2:0
Битовая глубина : 8 бит
Тип развёртки : Прогрессивная
Метод сжатия : С потерями
Бит/(Пиксели*Кадры) : 0.174
Размер потока : 411 Мбайт (82%)
Библиотека кодирования : XviD 73
Аудио #1
Идентификатор : 1
Формат : MPEG Audio
Версия формата : Version 1
Профиль формата : Layer 3
Режим : Joint stereo
Расширение режима : MS Stereo
Идентификатор кодека : 55
Идентификатор кодека/Подсказка : MP3
Продолжительность : 46 м.
Вид битрейта : Постоянный
Битрейт : 128 Кбит/сек
Каналы : 2 канала
Частота : 48,0 КГц
Метод сжатия : С потерями
Размер потока : 42,1 Мбайт (8%)
Выравнивание : Соединение по промежуткам
Продолжительность промежутка : 40 мс. (1,00 видеокадр)
Время предзагрузки промежутка : 504 мс.
Библиотека кодирования : LAME3.99r
Настройки программы : -m j -V 4 -q 2 -lowpass 17 -b 128
Аудио #2
Идентификатор : 2
Формат : MPEG Audio
Версия формата : Version 1
Профиль формата : Layer 3
Режим : Joint stereo
Расширение режима : MS Stereo
Идентификатор кодека : 55
Идентификатор кодека/Подсказка : MP3
Продолжительность : 46 м.
Вид битрейта : Постоянный
Битрейт : 128 Кбит/сек
Каналы : 2 канала
Частота : 48,0 КГц
Метод сжатия : С потерями
Размер потока : 42,1 Мбайт (8%)
Выравнивание : Соединение по промежуткам
Продолжительность промежутка : 40 мс. (1,00 видеокадр)
Время предзагрузки промежутка : 504 мс.
Библиотека кодирования : LAME3.99r
Настройки программы : -m j -V 4 -q 2 -lowpass 17 -b 128

_________________
[Торрент-статистика]
[Профиль]  [ЛС] 
Показать сообщения:    
Ответить на тему

Текущее время: Сегодня 06:22

Часовой пояс: GMT + 4



Вы не можете начинать темы
Вы не можете отвечать на сообщения
Вы не можете редактировать свои сообщения
Вы не можете удалять свои сообщения
Вы не можете голосовать в опросах
Вы не можете прикреплять файлы к сообщениям
Вы не можете скачивать файлы