Мой личный враг / My Own Worst Enemy Сезон:1 / Серии: 1-9 из 9 (Дэвид Семел, Феликс Энрикез Алькала, Гвинет Хердер-Пэйтон) [2008 г., Боевик, триллер, драма, WEB-DLRip] (Звезда)

Ответить на тему
 
Автор
Сообщение

awk05 ®

Пол:

Стаж: 4 года 5 месяцев

Сообщений: 1352

Репутация: 275 [+] [-]

Откуда: Западная Украина Ривне

Пост 17-Янв-2014 04:16

[Цитировать] 

--Мой личный враг / My Own Worst Enemy-- Год выпуска: 2008
Страна: США
Жанр: Боевик, триллер, драма
Сезон/Серия: Сезон:1 / Серия 1-9 из 9
Продолжительность: 9 х 00:45:00
Перевод: Профессиональный многоголосый закадровый (Звезда)
Субтитры: отсутствуют--Режиссер: Дэвид Семел, Феликс Энрикез Алькала, Гвинет Хердер-Пэйтон--В ролях: Кристиан Слэйтер, Медкен Эмик, Тэйлор Лотнер, Белла Торн, Элфри Вудард, Омид Абтахи, Саффрон Берроуз, Майк О`Мэлли, Марк Иванир и др.--Описание: Генри — консультант среднего класса, который живет обычной жизнью в пригороде с женой, детьми, собакой и минивеном. Эдвард — агент, который говорит на 13 языках, пробегает милю за 4 минуты и умеет убивать зубами. Генри и Эдвард полные противоположности, и общее у них только одно — тело, в котором они живут. И когда заботливо воздвигнутая меж ними стена рушится, Генри и Эдвард оба оказываются на незнакомой территории, где каждый из них в опасности. «Мой личный злейший враг» — сериал о двойственности человека, который в буквальном смысле борется сам с собой. Кому доверять, если не можешь доверять себе?--Качество: WEB-DLRip
Формат: AVI
Видео кодек: XviD
Аудио кодек: MP3
Видео: 720x400 (1.80:1), 23,976 кадра/сек, 1552 Кбит/сек, 0.225 бит/(Пиксели*Кадры)
Аудио Rus: 2 канала Front: L R, 48,0 КГц, 128 Кбит/сек
Аудио Eng: 2 канала Front: L R, 48,0 КГц, 128 Кбит/сек-- --

Список серий

Breakdown
The Hummingbird
Hello, Henry
That Is Not My Son
The Night Train to Moscow
High Crimes and Turducken
Down Rio Way
Love in All the Wrong Places
Henry and the Terrible... Day

MediaInfo

Общее
Полное имя : E:\Сериалы новые\My Own Worst Enemy Season 1\my.own.worst.enemy.s01e07.webdl.rus(zvezda).eng_NewStudio.TV.avi
Формат : AVI
Формат/Информация : Audio Video Interleave
Размер файла : 550 Мбайт
Продолжительность : 42 м.
Режим общего битрейта : Переменный
Общий поток : 1826 Кбит/сек
Программа кодирования : VirtualDubMod 1.5.10.2 (build 2540/release)
Библиотека кодирования : VirtualDubMod build 2540/release
Видео
Идентификатор : 0
Формат : MPEG-4 Visual
Профиль формата : Advanced Simple@L5
Параметр BVOP формата : 2
Параметр QPel формата : Да
Параметр GMC формата : Без точки перехода
Параметр матрицы формата : Default (MPEG)
Режим смешивания : Сжатый битовый поток
Идентификатор кодека : XVID
Идентификатор кодека/Подсказка : XviD
Продолжительность : 42 м.
Битрейт : 1552 Кбит/сек
Ширина : 720 пикселей
Высота : 400 пикселей
Соотношение сторон : 16:9
Частота кадров : 23,976 кадра/сек
Цветовое пространство : YUV
Субдискретизация насыщенности : 4:2:0
Битовая глубина : 8 бит
Тип развёртки : Прогрессивная
Метод сжатия : С потерями
Бит/(Пиксели*Кадры) : 0.225
Размер потока : 467 Мбайт (85%)
Библиотека кодирования : XviD 1.2.1 (UTC 2008-12-04)
Аудио #1
Идентификатор : 1
Формат : MPEG Audio
Версия формата : Version 1
Профиль формата : Layer 3
Режим : Joint stereo
Расширение режима : MS Stereo
Идентификатор кодека : 55
Идентификатор кодека/Подсказка : MP3
Продолжительность : 42 м.
Вид битрейта : Постоянный
Битрейт : 128 Кбит/сек
Каналы : 2 канала
Частота : 48,0 КГц
Метод сжатия : С потерями
Размер потока : 38,5 Мбайт (7%)
Выравнивание : Соединение по промежуткам
Продолжительность промежутка : 42 мс. (1,00 видеокадр)
Время предзагрузки промежутка : 504 мс.
Аудио #2
Идентификатор : 2
Формат : MPEG Audio
Версия формата : Version 1
Профиль формата : Layer 3
Режим : Joint stereo
Расширение режима : MS Stereo
Идентификатор кодека : 55
Идентификатор кодека/Подсказка : MP3
Продолжительность : 42 м.
Вид битрейта : Переменный
Битрейт : 128 Кбит/сек
Каналы : 2 канала
Частота : 48,0 КГц
Метод сжатия : С потерями
Размер потока : 38,7 Мбайт (7%)
Выравнивание : Соединение по промежуткам
Продолжительность промежутка : 24 мс. (0,58 видеокадр)
Время предзагрузки промежутка : 466 мс.
Библиотека кодирования : LAME3.90.
Настройки программы : -m j -V 4 -q 2 -lowpass 17.6 --abr 128

_________________
[Торрент-статистика]
[Профиль]  [ЛС] 
Показать сообщения:    
Ответить на тему

Текущее время: Сегодня 10:06

Часовой пояс: GMT + 4



Вы не можете начинать темы
Вы не можете отвечать на сообщения
Вы не можете редактировать свои сообщения
Вы не можете удалять свои сообщения
Вы не можете голосовать в опросах
Вы не можете прикреплять файлы к сообщениям
Вы не можете скачивать файлы