В последний миг / Eleventh Hour /Сезон 1 / Серии: 1-18 из 18(Стивен Галлахер, Майкл Дэвис, Энджел Дин Лопез) [2008 - 2009 гг., фантастика, триллер, драма, HDTVRip](SyFy)

Ответить на тему
 
Автор
Сообщение

awk05 ®

Пол:

Стаж: 4 года 5 месяцев

Сообщений: 1352

Репутация: 275 [+] [-]

Откуда: Западная Украина Ривне

Пост 17-Янв-2014 01:53

[Цитировать] 

--В последний миг / Eleventh Hour-- Год выпуска 2008 - 2009
Страна: США
Жанр: фантастика, триллер, драма
Сезон/Серия: Сезон:1 /Серия 1-18 из 18
Продолжительность: 18 ~00:43:00
Перевод: Профессиональная многоголосая закадровая (SyFy)
Субтитры: отсутствуют--Режиссёр: Стивен Галлахер, Майкл Дэвис, Энджел Дин Лопез--В ролях: Руфус Сьюэлл, Марли Шелтон, Омар Бенсон Миллер, Лейла, Марк С. Болдуин, Брэндон Ли Том--Описание: Сериал повествует о докторе Джейкобе Худе. Он специалист по биофизике, и на протяжении сериала демонстрирует удивительные познания в других областях. Доктор Худ работает на ФБР, расследуя особые "научные преступления", связанные с необъяснимыми феноменами и применением новейших технологий. В своей работе он применяет свои знания и научный метод, чтобы раскрывать эти преступления (во имя науки или справедливости).--Качество: HDTVRip
Формат: AVI
Видео кодек: XviD
Аудио кодек: MP3
Видео: 624x352 (1.77:1), 23,976 кадра/сек, 1008 Кбит/сек,0.191 Бит/(Пиксели*Кадры)
Аудио 1: 2 канала Front: L R, 48,0 КГц, 128 Кбит/сек
Аудио 2: 2 канала Front: L R, 48,0 КГц, 128 Кбит/сек--Релиз:
Звук предоставил: Baggio
Работа со звуком: Baggio-- --

Список серий

Воскрешение(Resurrection)
Сердце(Cardiac)
Сельское хозяйство(Agro)
Савант(Savant)
Локализация(Containment)
Замороженная(Frozen)
Всплеск напряжения(Surge)
Титаны(Titans)
Плоть(Flesh)
H2O(H2O)
Чудо(Miracle)
Вечное(Eternal)
Пиноккио(Pinocchio)
Минамата(Minamata)
Электро(Electro)
Метро(Subway)
Запах(Olfactus)
Медея(Medea)

MediaInfo

Общее
Полное имя : E:\Сериалы новые\Eleventh Hour Season 1 SyFy\Eleventh.Hour.S01E01.HDTVRip.NewStudio.TV.avi
Формат : AVI
Формат/Информация : Audio Video Interleave
Размер файла : 389 Мбайт
Продолжительность : 41 м.
Режим общего битрейта : Переменный
Общий поток : 1296 Кбит/сек
Программа кодирования : VirtualDubMod 1.5.10.2 (build 2540/release)
Библиотека кодирования : VirtualDubMod build 2540/release
Видео
Идентификатор : 0
Формат : MPEG-4 Visual
Профиль формата : Advanced Simple@L5
Параметр BVOP формата : 2
Параметр QPel формата : Нет
Параметр GMC формата : Без точки перехода
Параметр матрицы формата : Default (H.263)
Режим смешивания : Сжатый битовый поток
Идентификатор кодека : XVID
Идентификатор кодека/Подсказка : XviD
Продолжительность : 41 м.
Битрейт : 1008 Кбит/сек
Ширина : 624 пикселя
Высота : 352 пикселя
Соотношение сторон : 16:9
Частота кадров : 23,976 кадра/сек
Цветовое пространство : YUV
Субдискретизация насыщенности : 4:2:0
Битовая глубина : 8 бит
Тип развёртки : Прогрессивная
Метод сжатия : С потерями
Бит/(Пиксели*Кадры) : 0.191
Размер потока : 302 Мбайт (78%)
Библиотека кодирования : XviD 1.2.0SMP (UTC 2006-01-08)
Аудио #1
Идентификатор : 1
Формат : MPEG Audio
Версия формата : Version 1
Профиль формата : Layer 3
Режим : Joint stereo
Расширение режима : MS Stereo
Идентификатор кодека : 55
Идентификатор кодека/Подсказка : MP3
Продолжительность : 41 м.
Вид битрейта : Постоянный
Битрейт : 128 Кбит/сек
Каналы : 2 канала
Частота : 48,0 КГц
Метод сжатия : С потерями
Размер потока : 38,4 Мбайт (10%)
Выравнивание : Соединение по промежуткам
Продолжительность промежутка : 42 мс. (1,00 видеокадр)
Время предзагрузки промежутка : 504 мс.
Аудио #2
Идентификатор : 2
Формат : MPEG Audio
Версия формата : Version 1
Профиль формата : Layer 3
Режим : Joint stereo
Расширение режима : MS Stereo
Идентификатор кодека : 55
Идентификатор кодека/Подсказка : MP3
Продолжительность : 41 м.
Вид битрейта : Переменный
Битрейт : 128 Кбит/сек
Каналы : 2 канала
Частота : 48,0 КГц
Метод сжатия : С потерями
Размер потока : 42,8 Мбайт (11%)
Выравнивание : Соединение по промежуткам
Продолжительность промежутка : 24 мс. (0,58 видеокадр)
Время предзагрузки промежутка : 567 мс.

_________________
[Торрент-статистика]
[Профиль]  [ЛС] 
Показать сообщения:    
Ответить на тему

Текущее время: Сегодня 20:38

Часовой пояс: GMT + 4



Вы не можете начинать темы
Вы не можете отвечать на сообщения
Вы не можете редактировать свои сообщения
Вы не можете удалять свои сообщения
Вы не можете голосовать в опросах
Вы не можете прикреплять файлы к сообщениям
Вы не можете скачивать файлы