Элементарно / Elementary / Сезон: 1 / Серии: 1-24 (24) (Джон Дэвид Коулз, Майкл Куэста) [2012, Криминал, драма, детектив, WEB-DLRip] Dub (Первый канал)

Ответить на тему
 
Автор
Сообщение

awk05 ®

Пол:

Стаж: 4 года 5 месяцев

Сообщений: 1352

Репутация: 275 [+] [-]

Откуда: Западная Украина Ривне

Пост 17-Янв-2014 00:43

[Цитировать] 

-Элементарно / Elementary-- Страна: США | USA
Год выпуска: 2012
Жанр: криминал, драма, детектив
Сезон/Серия: Сезон:1 /Серия 1-24 из 24
Продолжительность:24 х ~00:45:00
Перевод: Полное дублирование (Первый канал)
Cубтитры: Нет--Режиссер: Джон Дэвид Коулз, Майкл Куэста / John David Coles, Michael Cuesta--В ролях:Джонни Ли Миллер, Люси Лью, Эйдан Куинн, Билл Хек, Уорд Хортон, Мэнни Перез и др.--Описание: Элементарно — современная драма о раскрывающем преступления дуэте Шерлока Холмса и доктора Ватсона, который помогает полиции Нью-Йорка в самых сложных делах. После лечения от алкоголизма и наркомании Шерлок сбегает из Лондона на Манхэттан, а его богатый отец заставляет его взять «компаньонку по трезвости» — Джоан Ватсон. Для Джоан это возможность искупить прошлые грехи — она была успешным хирургом до того, как по ее вине погиб пациент, и она потеряла лицензию. Но Шерлок не такой, как ее предыдущие клиенты. Он сразу же сообщает ей, что ее опыт к нему неприменим, и поддерживать трезвость он будет при помощи работы консультантом в полиции Нью-Йорка. У Ватсон не остается выбора кроме как следовать за ним повсюду. Шерлок находит ее медицинские знания полезными, а она внезапно находит в себе таланты следователя. Капитан Тоби Грегсон из полиции знаком с Холмсом по его работе в Скотланд-Ярде, и с радостью привлекает его к расследованиям в Нью-Йорке. Применив дедуктивный метод, легко догадаться, что эксцентричный Шерлок Холмс не долго протянет в Нью-Йорке, раскрывая преступления. Его порывы должен сдерживать верный друг. Кто бы это мог быть? Элементарно! Ватсон!--Качество: WEB-DLRip
Формат: AVI
Видео кодек: XviD
Аудио кодек: MP3
Видео: 720x400 (16:9), 23,976 кадра/сек, 1 106 Кбит/сек, 0.160 Бит/(Пиксели*Кадры)
Аудио 1: 2 канала Front: L R, 48,0 КГц, 128 Кбит/сек / Первый канал /
Аудио 2: 2 канала Front: L R, 48,0 КГц, 128 Кбит/сек / Оригинал /-- --

MediaInfo

General
Complete name : I:\ЗАКАЧКИ\elementary.s01e01.web-dlrip.rus.eng.to4ka.tv.avi
Format : AVI
Format/Info : Audio Video Interleave
File size : 450 MiB
Duration : 45mn 44s
Overall bit rate : 1 376 Kbps
Writing application : VirtualDubMod 1.6.0.0 SURROUND (build 2560/release)
Writing library : VirtualDubMod build 2560/release
Video
ID : 0
Format : MPEG-4 Visual
Format profile : Advanced Simple@L5
Format settings, BVOP : 1
Format settings, QPel : No
Format settings, GMC : No warppoints
Format settings, Matrix : Default (MPEG)
Codec ID : XVID
Codec ID/Hint : XviD
Duration : 45mn 44s
Bit rate : 1 106 Kbps
Width : 720 pixels
Height : 400 pixels
Display aspect ratio : 16:9
Frame rate : 23.976 fps
Color space : YUV
Chroma subsampling : 4:2:0
Bit depth : 8 bits
Scan type : Progressive
Compression mode : Lossy
Bits/(Pixel*Frame) : 0.160
Stream size : 362 MiB (80%)
Writing library : XviD 64
Audio #1
ID : 1
Format : MPEG Audio
Format version : Version 1
Format profile : Layer 3
Mode : Joint stereo
Mode extension : MS Stereo
Codec ID : 55
Codec ID/Hint : MP3
Duration : 45mn 44s
Bit rate mode : Constant
Bit rate : 128 Kbps
Channel(s) : 2 channels
Sampling rate : 48.0 KHz
Compression mode : Lossy
Stream size : 41.9 MiB (9%)
Alignment : Aligned on interleaves
Interleave, duration : 42 ms (1.00 video frame)
Interleave, preload duration : 504 ms
Audio #2
ID : 2
Format : MPEG Audio
Format version : Version 1
Format profile : Layer 3
Mode : Joint stereo
Codec ID : 55
Codec ID/Hint : MP3
Duration : 45mn 44s
Bit rate mode : Constant
Bit rate : 128 Kbps
Channel(s) : 2 channels
Sampling rate : 48.0 KHz
Compression mode : Lossy
Stream size : 41.9 MiB (9%)
Alignment : Aligned on interleaves
Interleave, duration : 42 ms (1.00 video frame)
Interleave, preload duration : 504 ms

Скриншоты



_________________
[Торрент-статистика]
[Профиль]  [ЛС] 
Показать сообщения:    
Ответить на тему

Текущее время: Сегодня 18:20

Часовой пояс: GMT + 4



Вы не можете начинать темы
Вы не можете отвечать на сообщения
Вы не можете редактировать свои сообщения
Вы не можете удалять свои сообщения
Вы не можете голосовать в опросах
Вы не можете прикреплять файлы к сообщениям
Вы не можете скачивать файлы