Третья жена / Трофейная жена / Trophy Wife / Сезон: 1 / Серии: 1-18 из 22 (Джейсон Мур) [2013, Комедия, WEB-DLRip] MVO (Fox Life)

Ответить на тему
 
Автор
Сообщение

awk05 ®

Пол:

Стаж: 4 года 5 месяцев

Сообщений: 1352

Репутация: 275 [+] [-]

Откуда: Западная Украина Ривне

Пост 16-Янв-2014 02:53

[Цитировать] 

--Третья жена / Trophy Wife-- Год выпуска: 2013
Страна: США
Жанр: Комедия
Сезон/Серия: Сезон:1 /Серия 1-18 из 22
Продолжительность: 22 х ~ 00:22:00
Перевод: Профессиональный (многоголосый закадровый) - FoxLife
Субтитры: нет--Режиссёр: Джейсон Мур--В ролях: Малин Акерман, Альберт Тсаи, Брэдли Уитфорд, Райан Ли, Бэйли Мэдисон, Михаэлла Уоткинс, Натали Моралес, Филлис Смит--Описание: Кейт упав на одной шумной вечеринке в караоке баре прямо на руки к незнакомому мужчине средних лет, получила будущего мужа! Но не только его одного, вместе с ним она получила двух бывших жен своего муженька и троих детей. Диана — первая бывшая жена — по профессии врач, до ужаса ревнивая стерва и мать двух тинейджеров по имени Уоррен и Хиллари. Джеки — вторая бывшая жена — нервная мать усыновленного маленького китайца по имени Берт.--Качество: WEB-DLRip
Формат: AVI
Видео кодек: XViD
Аудио кодек: MP3
Видео: 720x400 (16:9), 23,976 кадра/сек, 1310 Кбит/сек, 0.189 Бит/(Пиксели*Кадры)
Аудио 1: 2 канала Front: L R, 48,0 КГц, 128 Кбит/сек, 16 бит [RUS]
Аудио 2: 2 канала Front: L R, 48,0 КГц, 128 Кбит/сек, 16 бит [ENG]--- --

Список серий

Эпизод 01 Пилот / Pilot
Эпизод 02 Холодный файл / Cold File
Эпизод 03 Социальная сеть / The Social Network
Эпизод 04 Распад / The Breakup
Эпизод 05 Свидание / The Tryst
Эпизод 06 Хэллоуин / Halloween
Эпизод 07 Дата / The Date
Эпизод 08 Вшы и Бари Белый / Lice and Beary White
Эпизод 09 Русь Брэдли Моррисона / Russ Bradley Morrison
Эпизод 10 Ночь Перед Рождеством ... Или это Тва? / Twas the Night Before Christmas... Or Twas It?
Эпизод 11 Большая 5-0
Эпизод 12 Каратель
Эпизод 13 Зубная фея
Эпизод 14 Пьяный Обед
Эпизод 15 День Берта
Эпизод 16 Свадьба - Часть первая
Эпизод 17 Свадьба - Часть вторая
Эпизод 18 Couples Therapy

MediaInfo

Код:
Общее
Полное имя Trophy.Wife.s01e01.WEBDLRip.NewStudio.TV.avi
Формат : AVI
Формат/Информация : Audio Video Interleave
Размер файла : 249 Мбайт
Продолжительность : 22 м.
Общий поток : 1580 Кбит/сек
Программа кодирования : VirtualDubMod 1.5.10.2 (build 2540/release)
Библиотека кодирования : VirtualDubMod build 2540/release
Видео
Идентификатор : 0
Формат : MPEG-4 Visual
Профиль формата : Advanced Simple@L5
Параметр BVOP формата : 2
Параметр QPel формата : Нет
Параметр GMC формата : Без точки перехода
Параметр матрицы формата : Default (MPEG)
Идентификатор кодека : XVID
Идентификатор кодека/Подсказка : XviD
Продолжительность : 22 м.
Битрейт : 1310 Кбит/сек
Ширина : 720 пикселей
Высота : 400 пикселей
Соотношение сторон : 16:9
Частота кадров : 23,976 кадра/сек
Цветовое пространство : YUV
Субдискретизация насыщенности : 4:2:0
Битовая глубина : 8 бит
Тип развёртки : Прогрессивная
Метод сжатия : С потерями
Бит/(Пиксели*Кадры) : 0.190
Размер потока : 207 Мбайт (83%)
Библиотека кодирования : XviD 64
Аудио #1
Идентификатор : 1
Формат : MPEG Audio
Версия формата : Version 1
Профиль формата : Layer 3
Режим : Joint stereo
Расширение режима : MS Stereo
Идентификатор кодека : 55
Идентификатор кодека/Подсказка : MP3
Продолжительность : 22 м.
Вид битрейта : Постоянный
Битрейт : 128 Кбит/сек
Каналы : 2 канала
Частота : 48,0 КГц
Метод сжатия : С потерями
Размер потока : 20,2 Мбайт (8%)
Выравнивание : Соединение по промежуткам
Продолжительность промежутка : 42 мс. (1,00 видеокадр)
Время предзагрузки промежутка : 504 мс.
Аудио #2
Идентификатор : 2
Формат : MPEG Audio
Версия формата : Version 1
Профиль формата : Layer 3
Режим : Joint stereo
Идентификатор кодека : 55
Идентификатор кодека/Подсказка : MP3
Продолжительность : 22 м.
Вид битрейта : Постоянный
Битрейт : 128 Кбит/сек
Каналы : 2 канала
Частота : 48,0 КГц
Метод сжатия : С потерями
Размер потока : 20,2 Мбайт (8%)
Выравнивание : Соединение по промежуткам
Продолжительность промежутка : 42 мс. (1,00 видеокадр)
Время предзагрузки промежутка : 504 мс.

Скриншоты


Внимание! Раздача ведется путем добавления новых серий

Внимание! Раздача ведётся путём добавления новых серий; при каждом добавлении создаётся новый торрент. Чтобы начать докачку новой серии, пользователям необходимо сделать следующее:
(1) остановить скачивание,
(2) удалить старый торрент-файл у себя из клиента (старые серии удалять не надо),
(3) скачать новый торрент-файл из раздачи и запустить его у себя в клиенте вместо старого, при этом указать клиенту путь в старую папку, куда и должно происходить скачивание новых серий.
Ваш клиент при этом должен произвести хеширование (проверку) старой папки (если не производит сам - помогите ему сделать это), и будет докачивать только те серии, которых у Вас ещё нет. Старые серии при этом не удаляются, а продолжают раздаваться!
Eсли Вы уже посмотрели и удалили старые серии, то предотвратить повторную закачку старых серий можно, сняв галочки в соответсвующих местах при запуске нового торрента. По возможности, желательно не удалять старые серии как можно дольше чтобы релизёр не столько продолжал раздавать старые серии, сколько сконцентрироваться на новых.

_________________
[Торрент-статистика]
[Профиль]  [ЛС] 
Показать сообщения:    
Ответить на тему

Текущее время: Сегодня 19:36

Часовой пояс: GMT + 4



Вы не можете начинать темы
Вы не можете отвечать на сообщения
Вы не можете редактировать свои сообщения
Вы не можете удалять свои сообщения
Вы не можете голосовать в опросах
Вы не можете прикреплять файлы к сообщениям
Вы не можете скачивать файлы