Настоящий детектив / True Detective/ Сезон: 1 / Серия: 1-8 из 8 (Кэри Фукунага) [2014 г., Драма, криминал, HDTVRip] [Amedia]

Ответить на тему
 
Автор
Сообщение

3232fox ®

Пол:

Стаж: 3 года 9 месяцев

Сообщений: 614

Репутация: 423 [+] [-]

Откуда: Крым,Россия

Пост 16-Янв-2014 01:20

[Цитировать] 

-Настоящий детектив / True Detective--Год выпуска: 2014
Страна: США
Жанр: Драма, криминал
Сезон/Серия: Сезон:1 /Серия 1-8 из 8
Продолжительность: ?? х ~ 00:59:42
Перевод: Профессиональный (многоголосый, закадровый)[Amedia]
Субтитры: отсутствуют--Режиссер: Кэри Фукунага--В ролях: Мэттью МакКонахи, Вуди Харрельсон, Мишель Монахэн, Брюс Эллиотт, Рендал Гонсалес, Тори Киттлз, Дэвид Стивен Митчелл, Майкл Поттс, Эрик Прайс, Мэдисон Вульф
--Описание: Главные герои — два детектива. В 2012 году в штате Луизиана повторно открывается дело о серийном убийстве в 1995 году. Детективы познакомились 17 лет назад, когда началось расследование, и с тех пор вместе охотились за киллером. Повествование будет вестись как в наше время, так и откатится назад, в середину девяностых.-- --Тип релиза: HDTVRip
Контейнер: AVI
Видео кодек: XviD
Аудио кодек: AC3 (Dolby Digital)
Видео: 688x384 (1.79:1), 25.000 fps, XviD ~2077 kbps avg, 0.31 bit/pixel
Аудио: Rus: 48 kHz, AC3 Dolby Digital, 3/2 (L,C,R,l,r) + LFE ch, ~384 kbps--

Скриншоты

MI

General
Complete name : G:\видео\Настоящий_детектив_max_[scarabey.org]\True.detective.S01.E02_max_[scarabey.org].avi
Format : AVI
Format/Info : Audio Video Interleave
File size : 983 MiB
Duration : 55mn 36s
Overall bit rate : 2 471 Kbps
Writing application : VirtualDubMod 1.5.10.3 | www.virtualdub-fr.org || (build 2550/release)
Writing library : VirtualDubMod build 2550/release
Video
ID : 0
Format : MPEG-4 Visual
Format profile : Advanced Simple@L5
Format settings, BVOP : Yes
Format settings, QPel : No
Format settings, GMC : No warppoints
Format settings, Matrix : Custom
Codec ID : XVID
Codec ID/Hint : XviD
Duration : 55mn 36s
Bit rate : 2 077 Kbps
Width : 688 pixels
Height : 384 pixels
Display aspect ratio : 16:9
Frame rate : 25.000 fps
Color space : YUV
Chroma subsampling : 4:2:0
Bit depth : 8 bits
Scan type : Progressive
Compression mode : Lossy
Bits/(Pixel*Frame) : 0.315
Stream size : 826 MiB (84%)
Writing library : XviD 73
Audio
ID : 1
Format : AC-3
Format/Info : Audio Coding 3
Mode extension : CM (complete main)
Codec ID : 2000
Duration : 55mn 36s
Bit rate mode : Constant
Bit rate : 384 Kbps
Channel(s) : 6 channels
Channel positions : Front: L C R, Side: L R, LFE
Sampling rate : 48.0 KHz
Bit depth : 16 bits
Compression mode : Lossy
Stream size : 153 MiB (16%)
Alignment : Split accross interleaves
Interleave, duration : 40 ms (1.00 video frame)
Interleave, preload duration : 500 ms


Последний раз редактировалось: 3232fox (2014-03-31 22:03), всего редактировалось 8 раз(а)
[Торрент-статистика]
[Профиль]  [ЛС] 

3232fox ®

Пол:

Стаж: 3 года 9 месяцев

Сообщений: 614

Репутация: 423 [+] [-]

Откуда: Крым,Россия

Пост 21-Янв-2014 16:40 (спустя 5 дней)

[Цитировать] 

Конец


Последний раз редактировалось: 3232fox (2014-01-29 02:01), всего редактировалось 1 раз
[Торрент-статистика]
[Профиль]  [ЛС] 

nova1980

Пол:

Стаж: 5 лет

Сообщений: 820

Репутация: 523 [+] [-]

Откуда: Одесса Мама

Пост 31-Мар-2014 22:40 (спустя 2 месяца 10 дней)

[Цитировать] 

3232fox, Скриншотов не видно чет... Может перезалить надо?

_________________
Мои Раздачи
[Торрент-статистика]
[Профиль]  [ЛС] 

3232fox ®

Пол:

Стаж: 3 года 9 месяцев

Сообщений: 614

Репутация: 423 [+] [-]

Откуда: Крым,Россия

Пост 31-Мар-2014 22:44 (спустя 3 минуты)

[Цитировать] 

449523232fox, Скриншотов не видно чет... Может перезалить надо?
Я их вижу хорошо,странно както,5 раз открыл видно хорошо. если завтра не будет видно, поставлю другие
[Торрент-статистика]
[Профиль]  [ЛС] 

nova1980

Пол:

Стаж: 5 лет

Сообщений: 820

Репутация: 523 [+] [-]

Откуда: Одесса Мама

Пост 31-Мар-2014 22:50 (спустя 6 минут)

[Цитировать] 

3232fox, У меня их не видно в 2 браузерах. Может они в кеше у тебя просто остались... Посмотрим завтра.

_________________
Мои Раздачи
[Торрент-статистика]
[Профиль]  [ЛС] 

3232fox ®

Пол:

Стаж: 3 года 9 месяцев

Сообщений: 614

Репутация: 423 [+] [-]

Откуда: Крым,Россия

Пост 31-Мар-2014 22:51 (спустя 1 минута)

[Цитировать] 

449553232fox, У меня их не видно в 2 браузерах. Может они в кеше у тебя просто остались... Посмотрим завтра.
хорошо
[Торрент-статистика]
[Профиль]  [ЛС] 

Andrey110682

Пол:

Стаж: 4 года 9 месяцев

Сообщений: 230

Репутация: 176 [+] [-]

Пост 01-Апр-2014 06:33 (спустя 7 часов)

[Цитировать] 

я скриншоты вижу, все в поряде... превьюшки работают bs

_________________

[Торрент-статистика]
[Профиль]  [ЛС] 

awk05

Пол:

Стаж: 4 года 5 месяцев

Сообщений: 1352

Репутация: 275 [+] [-]

Откуда: Западная Украина Ривне

Пост 01-Апр-2014 11:28 (спустя 4 часа)

[Цитировать] 

и Я вижу все норм

_________________
[Торрент-статистика]
[Профиль]  [ЛС] 

nova1980

Пол:

Стаж: 5 лет

Сообщений: 820

Репутация: 523 [+] [-]

Откуда: Одесса Мама

Пост 01-Апр-2014 11:30 (спустя 2 минуты)

[Цитировать] 

Да, сейчас все видят, но вчера лажа какая та была с ними.

_________________
Мои Раздачи
[Торрент-статистика]
[Профиль]  [ЛС] 
Показать сообщения:    
Ответить на тему

Текущее время: Сегодня 18:17

Часовой пояс: GMT + 4



Вы не можете начинать темы
Вы не можете отвечать на сообщения
Вы не можете редактировать свои сообщения
Вы не можете удалять свои сообщения
Вы не можете голосовать в опросах
Вы не можете прикреплять файлы к сообщениям
Вы не можете скачивать файлы