Вернуть из Мёртвых / Tru Calling / Сезон 2 / Серии 1-6 из 6 (Майкл Кэтлман, Пол Шапиро, Дэвид Соломон) [2005-2008 г.г., триллер, мистика, DVDRip]

Ответить на тему
 
Автор
Сообщение

awk05 ®

Пол:

Стаж: 4 года 5 месяцев

Сообщений: 1352

Репутация: 275 [+] [-]

Откуда: Западная Украина Ривне

Пост 14-Янв-2014 23:51

[Цитировать] 

--Вернуть из Мёртвых / Tru Calling-- Год выпуска: 2005-2008
Страна: США
Жанр: Сериал, триллер, мистика
Сезон/Серия: Сезон:2 /Серия 1-6 из 6
Продолжительность: 6 х 00:42:29
Перевод: Профессиональный (многоголосый, закадровый)
Русские субтитры: есть--Режиссер: Майкл Кэтлман, Пол Шапиро, Дэвид Соломон--В ролях: Элиза Дашку (Тру Дэвис), Шон Ривз (Харрисон Дэвис), Зак Галифинакис (Дэвис), Эй-Джей Кук (Линдси Уокер), Джейсон Пристли (Джек Харпер), Мэттью Боумер (Люк)--Описание: Странные и опасные приключения случаются не только с супергероями. Юная выпускница университета по имени Тру Дэвис, работая ночной дежурной в нью-йоркском морге, тоже ухитряется стать участницей необычной истории.
Все началось с того, что ночью ей привиделось — вернее, прислышилось! — что жертва убийства просит ее о помощи. На следующее утро Тру обнаруживает, что каким-то чудом вернулась во вчерашний день, и до предполагаемого убийства остается ровно 12 часов.
Каждая минута приближала момент смерти человека, труп которого Тру уже видела в морге… Пытаясь не сойти с ума, девушка делает все, чтобы предотвратить эту смерть, а заодно и разобраться в собственной жизни.--Качество: DVDRip
Формат: AVI
Видео кодек:: XviD
Аудио кодек:: MP3
Видео: 640х352 , (16:9) , 25.000 fps , ~950 kbps avg , 0.169 bit/pixel
Аудио 1: MP3 1 channels , 48 kHz , 64 kbps avg |Русский|
Аудио 2: AC-3 2 channels (L, R) , 48 kHz , 192 kbps avg |English|-- --

Список серий

1 «Perfect Storm»
2 «Grace»
3 «In the Dark»
4 «The Last Good Day»
5 «Enough»
6 «Twas the Night Before Christmas…Again»

MediaInfo

General
Complete name : E:\Сериалы новые\Tru_calling (s2)\Tru_Calling_-_2x01_-_Perfect_Storm.(RU,EN)(www.disneyjazz.net).avi
Format : AVI
Format/Info : Audio Video Interleave
File size : 371 MiB
Duration : 42mn 29s
Overall bit rate : 1 220 Kbps
Writing application : VirtualDubMod 1.5.10.2 (build 2540/release)
Writing library : VirtualDubMod build 2540/release
Video
ID : 0
Format : MPEG-4 Visual
Format profile : Advanced Simple@L5
Format settings, BVOP : 2
Format settings, QPel : No
Format settings, GMC : No warppoints
Format settings, Matrix : Default (H.263)
Muxing mode : Packed bitstream
Codec ID : XVID
Codec ID/Hint : XviD
Duration : 42mn 29s
Bit rate : 950 Kbps
Width : 640 pixels
Height : 352 pixels
Display aspect ratio : 16:9
Frame rate : 25.000 fps
Color space : YUV
Chroma subsampling : 4:2:0
Bit depth : 8 bits
Scan type : Progressive
Compression mode : Lossy
Bits/(Pixel*Frame) : 0.169
Stream size : 289 MiB (78%)
Writing library : XviD 1.0.2 (UTC 2004-08-29)
Audio #1
ID : 1
Format : MPEG Audio
Format version : Version 1
Format profile : Layer 3
Codec ID : 55
Codec ID/Hint : MP3
Duration : 42mn 29s
Bit rate mode : Constant
Bit rate : 64.0 Kbps
Channel count : 1 channel
Sampling rate : 48.0 KHz
Compression mode : Lossy
Stream size : 19.5 MiB (5%)
Alignment : Aligned on interleaves
Interleave, duration : 40 ms (1.00 video frame)
Interleave, preload duration : 504 ms
Writing library : LAME3.96
Audio #2
ID : 2
Format : AC-3
Format/Info : Audio Coding 3
Format profile : Dolby Digital
Mode extension : CM (complete main)
Format settings, Endianness : Big
Codec ID : 2000
Duration : 42mn 29s
Bit rate mode : Constant
Bit rate : 192 Kbps
Channel count : 2 channels
Channel positions : Front: L R
Sampling rate : 48.0 KHz
Bit depth : 16 bits
Compression mode : Lossy
Delay relative to video : 24ms
Stream size : 58.3 MiB (16%)
Alignment : Split accross interleaves
Interleave, duration : 40 ms (1.00 video frame)
Interleave, preload duration : 500 ms

_________________
[Торрент-статистика]
[Профиль]  [ЛС] 
Показать сообщения:    
Ответить на тему

Текущее время: Сегодня 06:26

Часовой пояс: GMT + 4



Вы не можете начинать темы
Вы не можете отвечать на сообщения
Вы не можете редактировать свои сообщения
Вы не можете удалять свои сообщения
Вы не можете голосовать в опросах
Вы не можете прикреплять файлы к сообщениям
Вы не можете скачивать файлы