24 часа / 24 Just in time /1-8 сезоны: 1-192 серии из 192 (Джоул Серноу, Роберт Кокран, Джон Кассар) [2001-2010 г., боевик, триллер, драма, DVDRip, BDRip, WEB-DLRip]

Ответить на тему
 
Автор
Сообщение

awk05 ®

Пол:

Стаж: 4 года 5 месяцев

Сообщений: 1352

Репутация: 275 [+] [-]

Откуда: Западная Украина Ривне

Пост 13-Янв-2014 17:22

[Цитировать] 

--24 часа / 24 Just in time-- Год выпуска: 2001-2010 г.
Страна: США
Жанр: боевик, триллер, драма, криминал, детектив, приключения
Сезон/Серия: 1-8 сезоны: 1-192 серии из 192
Продолжительность: 192 х ~ 00:42:00
Перевод 1-4 сезон: Профессиональный (полное дублирование) - ДТВ
Перевод 5 сезон: Профессиональный (одноголосый) - Сергей Визгунов
Перевод 6 сезон: Профессиональный (двухголосый)
Перевод 7-8 сезон: Профессиональный (многоголосый) - Новамедиа
Субтитры: нет--Режиссер: Джоул Серноу, Роберт Кокран, Джон Кассар--В ролях: Кифер Сазерленд, Лесли Хоуп, Сара Кларк, Элиша Катберт, Деннис Хейсбёрт, Сара Уайнтер, Ксандер Беркли, Пенни Джонсон Джеральд, Карлос Бернард, Рейко Эйлсворт, Джеймс Бэдж Дэйл, Ким Рэйвер, Альберта Ватсон, Черри Джонс, Лана Паррия, Роджер Кросс, Уильям Дивэйн, Мэри Линн Райскаб, Грегори Итцин, Джеймс Моррисон, Луис Ломбарди, Джин Смарт, Д. Б. Вудсайд, Питер Макникол, Джейн Эткинсон, Карло Рота, Эрик Бальфур, Реджина Кинг, Марисоль Николс, Энни Вершинг, Колм Фиор, Боб Гантон, Джеффри Нордлинг, Риз Койро, Джанин Гарофало, Майкелти Уильямсон, Кэти Сакхофф, Крис Диамантополос, Джон Бойд, Фредди Принц-мл.--Приглашённые актёры: Карина Арройяве, Дэниэл Бесс, Миа Киршнер, Майкл Масси, Виселос Реон Шеннон, Гленн Моршауэр, Джуд Чикколелла, Желько Иванек, Пол Шульц, Деннис Хоппер, Мишель Форбс, Филлип Риз, Лора Харрис, Джон Терри, Дэниэл Дэ Ким, Лурдес Бенедикто, Жоаким Ди Алмейда, Кристина Чанг, Закари Куинто, Винсент Лареска, Ванесса Ферлито, Джесси Боррего, Джофф Пирсон, Пол Блекторн, Нестор Серрано, Шохре Агдашлу, Джонатан Ахдут, Джеймс Фрейн, Арнольд Вослу, Джон Аллен Нельсон, Ци Ма, Сандрин Холт, Ник Джеймисон, Джулиан Сэндз, Питер Уэллер, Пол МакКрейн, Стивен Спинелла, Адони Маропис, Рена Софер, Эван Эллингсон, Джеймс Кромвелл, Пауэрс Бут, Кэри Матчетт, Рик Шродер, Хаким Кае-Казим, Джон Войт, Фрэнк Джон Хьюз, Спрэг Грэйден, Некар Задеган, Назнин Контрактор, Т.Дж. Рамини, Мидо Хамада, Миша Коллинз--Описание: Жизнь Джека Бауэра, агента контртеррористического подразделения Лос-Анджелеса, настолько насыщена событиями, что от его решений не просто каждый день, а буквально каждый час зависит жизнь многих людей. Международные террористы, бывшие агенты и профессиональные военные, иностранные спецслужбы — у всех них есть масса причин совершать действия, направленные на получение выгоды и нанесение ущерба различной природы: от угрозы жизни кандидату в президенты до взрыва атомной бомбы на территории США. Простые жители в этой игре всего лишь пешки, но именно ради их спокойствия Бауэр с коллегами готовы рисковать жизнью.-- --

1 сезон

Сезон/Серия: Сезон:1 /Серия 1-24 из 24
Продолжительность: 24 х 00:40:56--Описание:Лос-Анджелес, выборы президента. Джек Бауэр должен защищать сенатора Дэвида Палмера (Деннис Хэйсбёрт / Dennis Haysbert), возможного будущего президента США, на которого заговорщики планируют совершить покушение. Злоумышленники похищают дочь Джека Ким (Элиша Катберт / Elisha Cuthbert), смертельной опасности подвергается и его жена Тери (Лесли Хоуп / Leslie Hope), с которой он незадолго до этого расстался.--Качество: DVDRip
Формат: AVI
Видео кодек: XviD
Аудио кодек: МР3
Видео: 688x384 (16:9), 25.000 fps, ~1185 kbps avg, 0.179 bit/pixel
Аудио: 2 channels, 48 kHz, ~128.00 kbps avg--

Список серий

Серия 1
Куала-Лумпур. Человек по имени Виктор Роунер передает по компьютеру пароль для управления космическим спутником, находящимся на околоземной орбите. В это...
Серия 2
Мэнди приземляется в пустыне Мохаве, разводит костер и сжигает в нем свои вещи и парашют. Вложив фотографию Мартина в какой-то...
Серия 3
Джек едет на машине обратно на работу. С помощью Джейми он узнает, что компьютер принадлежит Нине и думает, что она...
Серия 4
Дженет шевелится на дороге, а мимо нее проходит бомж с пакетом. Дэн и Рик тащат Ким к машине, впихивают ее...
Серия 5
Дженет привозят в больницу и готовят к операции, Тери и Алан приезжают следом и не могут узнать, кого именно привезли...
Серия 6
Врачам больницы удается вернуть Дженет к жизни. Алан и Тери находятся рядом в коридоре, но в палату их не пускают....
Серия 7
Наемник Гейнса, выглядящий как Мартин, собирается идти к нему. Он надевает цветные контактные линзы, затем рубашку, приходит к Гейнсу, и...
Серия 8
Нина уходит из карьера пешком, думая, что делает Джек и почему он ничего не говорит ей. Палмер и Шерри приезжают...
Серия 9
Палмер уезжает с электростанции вместе со своей женой. Его служба охраны арестовывает Джека и везет его в штаб-квартиру. Гейнс приказывает...
Серия 10
Тони и Нина отправляют Джейми в больницу. Нина сообщает Джеку, когда тот звонит ей, что Джейми пыталась покончить с собой....Серия 11
Алберта узнает, что в покушении на Палмера замешан фотограф по имени Мартин. Джек везет Теда в аэропорт, и в этот...
Серия 12
Джек везет Кевина по дороге, ведущей к месту, где засел Гейнс. Алберта делает объявление, что все агенты, знающие о местонахождении...
Серия 13
Джек и Рик скрываются в лесу, в то время как машины Гейнса перекрывают дорогу в город. Тери и Ким идут...
Серия 14
Джек, Тери и Ким возвращаются на вертолете на базу. Там их встречают Алберта, Нина и Тони. Джеку приходится ехать с...
Серия 15
Палмер требует от Тони немедленно позвать Джека, так как ему надо допросить его по делу о покушении на убийство. Тони...
Серия 16
Джек пытается дозвониться до Элиса, и после нескольких попыток понимает, что тот мертв. Он звонит агенту в Новый Орлеан и...
Серия 17
Ким бредет по дороге и зовет Тери, но та не отзывается. Сама Тери едет на машине с той девушкой, которую...
Серия 18
Джек решает взять деньги в чемодане Алексиса и отправиться на встречу с тем парнем, с которым тот собирался встретиться в...
Серия 19
Тери и Фил едут к дому Бауэров. Киллер прячется в кустах, наблюдая за ними, а потом крадется с пистолетом. Тери...
Серия 20
Нина уходит из карьера пешком, думая, что делает Джек и почему он ничего не говорит ей. Палмер и Шерри приезжают...Серия 21
Палмер уезжает с электростанции вместе со своей женой. Его служба охраны арестовывает Джека и везет его в штаб-квартиру. Гейнс приказывает...
Серия 22
Люди Дрейзена вытаскивают Ким из машины, заклеивают рот скотчем и увозят на своей. В это время Палмер устраивает еще одну...
Серия 23
Джек едет на машине по дороге в город, ему звонит Дрейзен и приказывает отправляться к Палмеру, чтобы тот дал санкции...
Серия 24
Джек подъезжает к пирсу на машине. Дрейзен решает устроить ему западню и убить, потому что Ким от них сбежала. Виктор...

MediaInfo

General
Complete name : E:\Сериалы новые\24 Часа\24 - 1 сезон\1-01.avi
Format : AVI
Format/Info : Audio Video Interleave
File size : 387 MiB
Duration : 40mn 56s
Overall bit rate : 1 323 Kbps
Writing application : VirtualDubMod 1.6.0.0 SURROUND (build 2560/release)
Writing library : VirtualDubMod build 2560/release
Video
ID : 0
Format : MPEG-4 Visual
Format profile : Advanced Simple@L5
Format settings, BVOP : 1
Format settings, QPel : No
Format settings, GMC : No warppoints
Format settings, Matrix : Default (MPEG)
Codec ID : XVID
Codec ID/Hint : XviD
Duration : 40mn 56s
Bit rate : 1 185 Kbps
Width : 688 pixels
Height : 384 pixels
Display aspect ratio : 16:9
Frame rate : 25.000 fps
Color space : YUV
Chroma subsampling : 4:2:0
Bit depth : 8 bits
Scan type : Progressive
Compression mode : Lossy
Bits/(Pixel*Frame) : 0.179
Stream size : 347 MiB (90%)
Writing library : XviD 1.2.0.dev47 (UTC 2006-11-01)
Audio
ID : 1
Format : MPEG Audio
Format version : Version 1
Format profile : Layer 3
Codec ID : 55
Codec ID/Hint : MP3
Duration : 40mn 56s
Bit rate mode : Constant
Bit rate : 128 Kbps
Channel count : 2 channels
Sampling rate : 48.0 KHz
Compression mode : Lossy
Stream size : 37.5 MiB (10%)
Alignment : Aligned on interleaves
Interleave, duration : 40 ms (1.00 video frame)
Interleave, preload duration : 504 ms
Writing library : LAME3.97
Encoding settings : -m s -V 4 -q 2 -lowpass 17 -b 128

2 сезон

Сезон/Серия: Сезон:2 /Серия 1-24 из 24
Продолжительность: 24 х 00:49:48--Описание: В сутках 24 часа, но для Джека Бауэра - шефа элитного антитеррористического подразделения ЦРУ – этого времени явно недостаточно. Ровно за одни сутки он должен успеть спасти город и страну от очередной террористической угрозы. Каждый сезон, состоящий из 24 серий, повествует об одних сутках из жизни Джека, за один день он должен совершить невозможное...
Действие второго сезона сериала "24" разворачивается через полтора года после событий первого сезона. Джек Бауэр больше не работает в КТП, он подавлен и в депрессии, его дочь Ким избегает встреч с ним. Но когда возникает чрезвычайная ситуация, президент Дэвид Палмер принимает решение вновь ввести Джека в игру. За сутки ему предстоит найти и обезвредить попавшую в руки террористов ядерную бомбу, остановить готовую вот-вот разразиться войну и раскрыть заговор в правительстве.
Качество: DVDRip
Формат: AVI
Видео кодек: XviD
Аудио кодек: MP3
Видео: 640x368 (1.74:1), 25.000 fps, 842 kbps avg, 0.143 bit/pixel
Аудио: 2 channels, 48 kHz, ~128.00 kbps avg - rus
Аудио: 2 channels, 48 kHz, ~128.00 kbps avg - eng--

Список серий

Серия 1
Сеул, Корея. Человек по имени Джейсон Парк находится в руках нескольких агентов, которые хотят выбить из него какие-то сведения. Один...
Серия 2
Помощница Президента Линн Крисдж сообщает Президенту о том, что ЦРУ готовится к ответу на ядерную угрозу террористов. Палмер говорит, что...
Серия 3
Кимберли наконец-то удается отыскать Мэган. Пока она ее ищет, Гэри находит полиция, и он говорит, что Ким похитила его дочь....
Серия 4
Здание антитеррористического центра взрывается. Тони пытается спасти Полу, так как только она знает ключ к данным, переданным в штаб-квартиру ЦРУ....
Серия 5
Тони узнает, что Реза имеет связь с террористами. Джек сообщает ему, что Нина Майерс была той, кто рассказал террористам о...
Серия 6
Неприкосновенность Нине обещана правительством, и Джек немедленно хочет приступить к допросу. Палмер прибывает в бункер вместе с Линн и с...
Серия 7
Авиабаза Уорден, Лос-Анджелес, Калифорния. Джек и Нина приезжают туда на машине. Нина пыталась перетянуть на свою сторону агента Миллера, но...
Серия 8
Коп арестовывает Ким и Мигеля, увидев труп Карлы в их багажнике. Тони доставляет Боба и Реза в антитеррористический центр. Мэри...
Серия 9
Палмер хочет знать, как Вейланду удалось сбежать из-под охраны, и причастна ли к этому Шерри. Майк показывает ему видеозапись, на...
Серия 10
Палмер выступает на пресс-конференции, сообщая, что группа террористов пытается диктовать ему свои условия, но он сделает все возможное, чтобы получить...Серия 11
Ким скрывается от полиции в национальном парке Энджелс Крест и прячется от лучей вертолетов среди деревьев. Убив Реза и агента...
Серия 12
Группа захвата окружает мечеть. Джек спрашивает имама, не укрывает ли он террориста, и тот отвечает, что будет сотрудничать с группой...
Серия 13
Едя к аэропорту, Джек спрашивает Тони о Ким. Тот отвечает, что ничего о ней не слышал, и Джек просит его...
Серия 14
В гараже ищут бомбу. Убиты шестеро террористов из семерых. Один скрылся. Кейт в шоке от информации, что Мэри имеет связь...
Серия 15
Детонатор бомбы приведен в действие и саперы ничего не могут предприянть. 55 минут до взрыва и отсчет удже идет. Бомбу...
Серия 16
Джек укрывается за горой и после взрыва дает сигнальный выстрел. Ким думает, что отец погиб. Мобильная связь не работает. Расследование...
Серия 17
Ким берут в заложницы. Кейт едет с Джеком, доверяя ему, но Тони успевает сказать Кери, что бы та не выпускала...
Серия 18
Во время перестрелки Джек просит передать ему спутниковые фото случившегося. Мишель под наблюдением.Гарсиа забирает в больницу служба спасения.Палмер еле серживает...
Серия 19
Кейт под прикрытием Джека должна переправить микрочип в центр.Джек уводит за собой убийц, принимая удар.Палмер не намерен наносить ответный удар,...
Серия 20
Дефибриллятор действует на Джека оживляюще. Джек на пороге смерти, но помощьник Старка, убив Кингсли, требует у Джека микрочип.Линн сбегает от... Серия 21
Джек пробует получить от грабителей микрочип, но начинается перестрелка. Бомбардировщиков нет на базе, вопреки приказам Палмера. Микрочип у Джека. Палмеру...
Серия 22
Палмер узнает о бомбардировщике, но не отдает пусковые коды. Палмер в отставке. Джек ущзнает, что Шерри прячет что-то важное на...
Серия 23
Тони устраняет Чапела и Керри. Джек преследует Хьюитта по тоннелю, предлагая сотрудничество. Кингсли разочарован, ведь Хьюит может все испортить, а...
Серия 24
Джек отделался царапинами, но заклинило ремень безопасности. Шерри хотев вначале бросить его, все же разрезает ремень. Есть доказательства, что Кингсли...

MediaInfo

General
Complete name : E:\Сериалы новые\24 Часа\24 - 2 сезон\24.s02e01.dvdrip.rus(dtv).eng.novafilm.avi
Format : AVI
Format/Info : Audio Video Interleave
File size : 393 MiB
Duration : 49mn 48s
Overall bit rate mode : Variable
Overall bit rate : 1 105 Kbps
Writing application : VirtualDubMod 1.5.10.2 (build 2542/release)
Writing library : VirtualDubMod build 2542/release
Video
ID : 0
Format : MPEG-4 Visual
Format profile : Simple@L3
Format settings, BVOP : No
Format settings, QPel : No
Format settings, GMC : No warppoints
Format settings, Matrix : Default (H.263)
Codec ID : XVID
Codec ID/Hint : XviD
Duration : 49mn 48s
Bit rate : 842 Kbps
Width : 640 pixels
Height : 368 pixels
Display aspect ratio : 1.739
Frame rate : 25.000 fps
Color space : YUV
Chroma subsampling : 4:2:0
Bit depth : 8 bits
Scan type : Progressive
Compression mode : Lossy
Bits/(Pixel*Frame) : 0.143
Stream size : 300 MiB (76%)
Writing library : XviD 0.0.09 (UTC 2003-03-25)
Audio #1
ID : 1
Format : MPEG Audio
Format version : Version 1
Format profile : Layer 3
Mode : Joint stereo
Mode extension : MS Stereo
Codec ID : 55
Codec ID/Hint : MP3
Duration : 49mn 48s
Bit rate mode : Constant
Bit rate : 128 Kbps
Channel count : 2 channels
Sampling rate : 48.0 KHz
Compression mode : Lossy
Stream size : 45.6 MiB (12%)
Alignment : Aligned on interleaves
Interleave, duration : 40 ms (1.00 video frame)
Interleave, preload duration : 504 ms
Audio #2
ID : 2
Format : MPEG Audio
Format version : Version 1
Format profile : Layer 3
Mode : Joint stereo
Mode extension : MS Stereo
Codec ID : 55
Codec ID/Hint : MP3
Duration : 49mn 48s
Bit rate mode : Variable
Bit rate : 116 Kbps
Nominal bit rate : 128 Kbps
Channel count : 2 channels
Sampling rate : 48.0 KHz
Compression mode : Lossy
Stream size : 41.5 MiB (11%)
Alignment : Aligned on interleaves
Interleave, duration : 24 ms (0.60 video frame)
Interleave, preload duration : 504 ms
Writing library : LAME3.92
Encoding settings : -m j -V 0 -q 2 -lowpass 15.3 --abr 128

3 сезон

Сезон/Серия: Сезон:3 /Серия 1-24 из 24
Продолжительность: 24 х 00:49:38--Описание: В сутках 24 часа, но для Джека Бауэра - шефа элитного антитеррористического подразделения ЦРУ – этого времени явно недостаточно. Ровно за одни сутки он должен успеть спасти город и страну от очередной террористической угрозы. Каждый сезон, состоящий из 24 серий, повествует об одних сутках из жизни Джека, за один день он должен совершить невозможное...
На этот раз террор принимает биологический характер. Прошло три года с того момента, когда агент CTU Джек Бауер предотвратил попытку террористов втянуть США в войну. Теперь он снова вернулся в Лос-Анджелес после шести месяцев работы под прикрытием, позволившей разоблачить наркобарона Рамона Салзаара. В ФБР поступает звонок от террориста, угрожающим заразить Лос-Анджелес смертоносным вирусом, если Салзаара не выпустят из тюрьмы в течение шести часов. Пока CTU ищет вирус, Джек понимает, что единственный способ предотвратить угрозу - найти сам источник вируса, помогая бежать Салзаару из тюрьмы.
Качество: DVDRip
Формат: AVI
Видео кодек: XviD
Аудио кодек: МР3
Видео: 576x320 (16:9), 25.000 fps, 850 kbps avg, 0.184 bit/pixel
Аудио Rus: 2 channels, 48 kHz, ~128.00 kbps avg
Аудио Eng: 2 channels, 48 kHz, ~128.00 kbps avg--

Список серий

Серия 1
Прошло около трех лет. В Лос Анджелесе — бомба, заложенная в здании Службы Здравоохранения Америки. Джек Бауэр допрашивает заключенного Рамона...
Серия 2
Президент отказывается идти на условия террористов, но положение серьезное — вирус неизвестен и убивает очень быстро.
Серия 3
Николь Дункан — руководитель службы здравоохранения встречается с Джеком. Джек не успевает сделать себе укол героина. Предполагается, что в течении...
Серия 4
Стрельба в магазине пугает Мишель и Кима. Тони ранен и об этом сообщают Мишель. Так как она собирается быть с...
Серия 5
В тюрьме восстание. Освободив Салазара Джек отбирают униформу у охранников. Дирктор узнав о вирусе полностью подчиняется Чейзу.Они знают, что все...
Серия 6
Джек отправляется на самолете в Мексику, зная, что становится мишенью для пограничников. Чейз и Хлоя следят за ним по радару...
Серия 7
Ким привязана к стуоу, а Гаэль стирает все записи, на которых фигурирует Салазар. Адам настаивает, что бы Джек знал о...
Серия 8
Вся история, начиная от бомбы возле дверей Службы Здравоохранения и заканчиваясь взятием в заложники Салазара — звенья одной цепи. Вирус...
Серия 9
Наконец то Америка в безопасности — именно так заявил Президент. При этом он точно уверен, что существуют доказательства невиновности Энн....
Серия 10
Чейза пытают, но не могут добиться информации. АТЦ удается отследить звонок Гектора к Гаэлю. оказывается, что Нина выкупила вирус, но...Серия 11
Известно месторасположение Амадора.Перед самым приездом Гектора, вертолет эвакуирует семью Клауди и Чейза. Палмер не собирается допустить проход закона.
Серия 12
Мишель должна отработать без ошибок, помогая Джеку, так настроил ее Тони… Слазар два раза стреляет в Гектора. Нина утверждает, что...
Серия 13
Нина скрылась в лесу, но Чейз и Джек не могут отыскать ее, зато нашли труп сотрудника Дельты. Нина утверждает, что...
Серия 14
Все АТЦ осведомлено о ребенке. Нина назвала имя — Элверс. Теперь агенты ищут его и Амадора. Но файлы не оновлены…...
Серия 15
Нина мертва, может это месть Джека — этот вопрос волнует Мишеля и Тони. Амадор, в ночном клубе Лос-Анджелеса встречаетя с...
Серия 16
Субстанция с вирусом уже в вентиляционной системе.Элверс признается на допросе Мишелю о существовании 11 детонаторов. Амадор отказывается сказать Джеку имя...
Серия 17
Отель окружен спецназом. Паника увеличивается и Мишель еле сдерживает толпу. Джек не знает, почему именно он связывающее звено между террористами...
Серия 18
Чапела хотят привести в жертву. Жесткий диск у Джека. Сондерса необходимо отыскать, иначе террористы требуют у президента жизнь Чапела. Ищут...
Серия 19
Чапел убит. Палмер клянется, что это было последнее требование террористов, которое он выполнил.Выяснив, что у Сондерса есть дочь, они хотят...
Серия 20
Еще два человека инфицированы.Карантинная зона расширяется. АТЦ захватили дочь Сондерса и допрашивают ее. Ким в шоке от того, что стреляла... Серия 21
Спецназ окружил здание, но Сондерс не выходит. Жизнь Мишель в обмен на дочь Сондерса, который сбежал.Палмер набирает голоса среди населения.Побег...
Серия 22
Тони похищает Джейн, чтобы освободить Мишель. Мишель ведет переговоры с охранником, надеясь вырваться.Джек останавливает ТониПалмера шантажирует сенатор — соперник в...
Серия 23
Тони в тяжелом положении.Помогая сбежать Сондерсу, он предатель и заслуживает смерти. Джек пытает Сондерса о местонахождении остальных капсул. Стивен предлагает...
Комментировать
Серия 24
Ищут Артура Робинса, работающего на Сондерса. Тереза, вдова Гаэля убивает Сондерса. Нитка утеряна, так как только Сондерс знал у кого...

MediaInfo

General
Complete name : E:\Сериалы новые\24 Часа\24 - 3 сезон\24.s03e01.dvdrip.rus(dtv).eng.novafilm.avi
Format : AVI
Format/Info : Audio Video Interleave
File size : 399 MiB
Duration : 49mn 38s
Overall bit rate mode : Variable
Overall bit rate : 1 123 Kbps
Writing application : VirtualDubMod 1.5.10.2 (build 2542/release)
Writing library : VirtualDubMod build 2542/release
Video
ID : 0
Format : MPEG-4 Visual
Format profile : Advanced Simple@L5
Format settings, BVOP : No
Format settings, QPel : No
Format settings, GMC : No warppoints
Format settings, Matrix : Default (H.263)
Codec ID : XVID
Codec ID/Hint : XviD
Duration : 49mn 38s
Bit rate : 850 Kbps
Width : 576 pixels
Height : 320 pixels
Display aspect ratio : 16:9
Frame rate : 25.000 fps
Color space : YUV
Chroma subsampling : 4:2:0
Bit depth : 8 bits
Scan type : Progressive
Compression mode : Lossy
Bits/(Pixel*Frame) : 0.184
Stream size : 302 MiB (76%)
Writing library : XviD 1.0.1 (UTC 2004-06-05)
Audio #1
ID : 1
Format : MPEG Audio
Format version : Version 1
Format profile : Layer 3
Mode : Joint stereo
Mode extension : MS Stereo
Codec ID : 55
Codec ID/Hint : MP3
Duration : 49mn 38s
Bit rate mode : Constant
Bit rate : 128 Kbps
Channel count : 2 channels
Sampling rate : 48.0 KHz
Compression mode : Lossy
Stream size : 45.4 MiB (11%)
Alignment : Aligned on interleaves
Interleave, duration : 40 ms (1.00 video frame)
Interleave, preload duration : 504 ms
Audio #2
ID : 2
Format : MPEG Audio
Format version : Version 1
Format profile : Layer 3
Mode : Joint stereo
Mode extension : MS Stereo
Codec ID : 55
Codec ID/Hint : MP3
Duration : 49mn 38s
Bit rate mode : Variable
Bit rate : 128 Kbps
Channel count : 2 channels
Sampling rate : 48.0 KHz
Compression mode : Lossy
Stream size : 45.2 MiB (11%)
Alignment : Aligned on interleaves
Interleave, duration : 24 ms (0.60 video frame)
Interleave, preload duration : 328 ms
Writing library : LAME3.93a
Encoding settings : -m j -V 4 -q 2 -lowpass 17.5 --abr 128

4 сезон

Сезон/Серия: Сезон:4 /Серия 1-24 из 24
Продолжительность: 24 х 00:41:14--Описание: Еще один захватывающий день из жизни супер-агента Джека Бауера. Сезон начинается со смертоносной террористической атаки и похищения Министра Обороны Джеймса Хэллэра. И хотя Бауер уволен из КТП, ничего удивительного в том, что именно он окажется тем, кто начнет борьбу с террористами, нет. И у него не займет много времени выяснить, что похищение его босса это часть большого плана, разработанного Хабибом Марваном, лидером ближне-восточной террористической ячейки, с которой правительство Соединенных Штатов борется уже много лет. Признанный многими одним их лучших сезонов, 4 сезон сериала 24 сильно отличается от предыдущих трех. Во-первых, обновленный актерский состав. Во-вторых, скорость каждого эпизода уже не такая безумная. Теперь акцент делается не на то, чтобы каждая серия заканчивалась на самом интересном месте, а на сложные, разветвленные сюжетные линии. По сравнению с предыдущими сезонами, сериал 24 стал намного изящнее и умнее, и следовательно, еще лучше.
Качество: DVDRip
Формат: AVI
Видео кодек: XviD
Аудио кодек: МР3
Видео: 640x352 (16:9), 25.000 fps, ~1010 kbps avg, 0.179 bit/pixel
Аудио Rus: 2 channels, 48 kHz, ~128.00 kbps avg
Аудио Eng: 2 channels, 48 kHz, ~162.58 kbps avg--

Список серий

Серия 1
В железнодорожной катастрофе погибает Броди — мужчина, с прикованным к его руке титанновым чемоданом. Мотоциклист преследовавший поезд, находит Броди и...
Серия 2
У Ричарда Геллера похищают отца и сестру. Все переключаются с поисков бомбы на поиски старшего Геллера и Одри. Эндрю пытается...
Серия 3
Президент обсуждает с подчиненными ситуацию с Геллером. АТЦ пытается остановить террористов.Джек сообщает о смерти Рони Дрисколл. Джека отстраняют от расследования....
Серия 4
Вырубив камеры слежения, Джек снимает маску.Эндрю Пейдж в ярости, что Джек на свободе.Джек не может дозвониться Кертис, что бы сообщить...
Серия 5
За Эдгаром следят по спутнику. Дрисколл сообщают об аресте Джека.Его освобождают с целью слежения за Каллилом. все звонки каллила с...
Серия 6
Начинается суд над Геллером. Проникнув на склад, Джек пытается спасти Геллера. до штурма остается 7 минут.Освободив Одри, они продолжают искать...
Серия 7
Одри с Джеком пытаются идентифицировать подозреваемого по видеозаписи процесса обеда. Можно ожидать расплавки первого реактора через 3 часа. Мариана выясняет...
Серия 8
Шесть реакторов в любую минуту могут взорваться. Об этом узнает президент.Джек ищет предателя в АТЦ. Президент эвакуирует часть городов. ...
Серия 9
Выяснилось, что предатель Марианна. кертис и Дрисколл встревожены и пытаются уничтожить информацию о связи с ней.Начаты поиски людей по номерам...
Серия 10
Нави берет в заложники Беруза. Их обнаруживают по спутнику.Джек осуществляет операцию захвата и в обмен на жизнь Бероуза Нави соглашается... Серия 11
Пришедший в себя Пол, доказывает, что ничего не знает о террористах.Джек просматривает файлы транзакций Пола. Все реакторы планируется взорвать с...
Серия 12
Марван выбирается из здания. выясняется, что именно он производил этот прибор, работая в фирме «МакЛеннан-Форстер». Дрисколл отправляют в отпуск… ...
Серия 13
Пола избивают, пытаясь узнать информацию о документе. Джек освобождает Пола. Тони отстраняют от командывания в АТЦ. Марван на связи с...
Серия 14
На вертолете Пол и Джек прибывают в АТЦ.Пола понимает, что испытывает чувства к Полу.У Президента с Геллером совещание. В поле...
Серия 15
Найдено тело Дины, а местонахождение Джека — загадка. Андерсон не может вылететь из-за поломки самолета. Объявляют в розыск семью пилота...
Серия 16
Киллер хочет дать пресс-конференцию в Лос-Анджелессе.Планы нападения записаны на жестком диске, который спрятан в аппртаментах Митча Андерсона.Джек штурмует здание, но...
Серия 17
Борт1 терпит крушение.На борту были агенты. Жив ли Президент неизвестно. Вице-президенту предлагают занять его место. Чемодан с «Красной кнопкой», запускающей...
Серия 18
На страницах, которые попали в руки к Джеку — коды и месторасположение боеголовок ядерного оружия. Одна из них следует в...
Серия 19
Прадо не допрашивают и отвозят в больницу, так как Президент не дал согласия на допрос.Девушка Сабира подозревает о его связи...
Серия 20
Президент спрятался в секретном бункере под Белым Домом. туда прибывает Дэвид палмер. Хлоя находит и вскрывает закодированные файлы о боеголовках.Это...Серия 21
Консул погиб.Для предотвращения войны с Китаем, всем людям консула нужно дать алиби.Хлоя пытается выйти на людей Марвина. АТЦ составляет список...
Серия 22
АТЦ не может выследить замаскированную ракету.Эвакуируют в первую очередь политиков Вашингтона.Марван опять на свободе.Население городов пока не оповещают.
Серия 23
Мэнди связала Тони и ищет информацию о нем.Она хочет вырваться из отеля, угрожая убить Тони. Она не может знать, что...
Комментировать
Серия 24
Президент подписывает прошение о помиловании Мэнди, не зная, что именно она покушалась на него… Получив помилование, Мэнди рассказывает где Марван....

MediaInfo

General
Complete name : E:\Сериалы новые\24 Часа\24 - 4 сезон\24.s04e01.dvdrip.rus(dtv).eng.novafilm.avi
Format : AVI
Format/Info : Audio Video Interleave
File size : 389 MiB
Duration : 41mn 14s
Overall bit rate mode : Variable
Overall bit rate : 1 318 Kbps
Writing application : VirtualDubMod 1.5.10.2 (build 2542/release)
Writing library : VirtualDubMod build 2542/release
Video
ID : 0
Format : MPEG-4 Visual
Format profile : Simple@L3
Format settings, BVOP : 2
Format settings, QPel : No
Format settings, GMC : No warppoints
Format settings, Matrix : Default (H.263)
Muxing mode : Packed bitstream
Codec ID : XVID
Codec ID/Hint : XviD
Duration : 41mn 14s
Bit rate : 1 010 Kbps
Width : 640 pixels
Height : 352 pixels
Display aspect ratio : 16:9
Frame rate : 25.000 fps
Color space : YUV
Chroma subsampling : 4:2:0
Bit depth : 8 bits
Scan type : Progressive
Compression mode : Lossy
Bits/(Pixel*Frame) : 0.179
Stream size : 298 MiB (77%)
Writing library : XviD 1.1.0 Beta2 (UTC 2005-04-04)
Audio #1
ID : 1
Format : MPEG Audio
Format version : Version 1
Format profile : Layer 3
Mode : Joint stereo
Mode extension : MS Stereo
Codec ID : 55
Codec ID/Hint : MP3
Duration : 41mn 14s
Bit rate mode : Constant
Bit rate : 128 Kbps
Channel count : 2 channels
Sampling rate : 48.0 KHz
Compression mode : Lossy
Stream size : 37.8 MiB (10%)
Alignment : Aligned on interleaves
Interleave, duration : 40 ms (1.00 video frame)
Interleave, preload duration : 504 ms
Audio #2
ID : 2
Format : MPEG Audio
Format version : Version 1
Format profile : Layer 3
Mode : Joint stereo
Mode extension : MS Stereo
Codec ID : 55
Codec ID/Hint : MP3
Duration : 41mn 14s
Bit rate mode : Variable
Bit rate : 158 Kbps
Channel count : 2 channels
Sampling rate : 48.0 KHz
Compression mode : Lossy
Stream size : 48.0 MiB (12%)
Alignment : Aligned on interleaves
Interleave, duration : 24 ms (0.60 video frame)
Interleave, preload duration : 113 ms
Writing library : LAME3.96r
Encoding settings : -m j -V 4 -q 3 -lowpass 18 --abr 158

5 сезон

Сезон/Серия: Сезон:5 /Серия 1-24 из 24
Продолжительность: 24 х 00:42:26--Описание: Спустя полтора года после событий четвертого сезона, Джек Бауэр под псевдонимом "Фрэнк Флинн" работает на нефтеперегонном заводе в Мохаве, штат Калифорния. Джек снимает комнату в северном предместье Лос-Анджелеса у матери-одиночки Дианы Хаксли и ее 15-летнего сына Дерека. Президент США Логан должен подписать договор об антитеррористическом сотрудничестве с русским президентом Юрием Суворовым. Однако, темные силы не дремлют: на США вновь нападают террористы, на этот раз — чеченские боевики под предводительством Владимира Бирко. Возможно ли, что действия террористов — часть заговора на государственном уровне? Как Джек Бауэр справится с новым кризисом? Пятый день начинается...
Качество: DVDRip
Формат: AVI
Видео кодек: XviD
Аудио кодек: МР3
Видео: 608×336 (16:9), 23.976 fps, ~957 kbps avg, 0.195 bit/pixel
Аудио Rus: 2 channels, 48 kHz, ~128.00 kbps avg
Аудио Eng: 2 channels, 48 kHz, ~128.00 kbps avg--

Список серий

Серия 1
Дэвида Палмера убивает снайпер. Президент США планирует встречу с русским Президентом. В пустыне Мохави странные работы ведуться на буровой вышке…...
Серия 2
Джека зафиксировали камеры видеонаблюдения того здания, в котором был убит Палмер.До этого Джек считался мертвым. Оказывается его смерть была исценирована...
Серия 3
Здание аэропорта захвачено. Дайан имеет важные сведения для АТЦ, но ее оттаскивают от здания. Террористы требуют связи с Логаном и...
Серия 4
Возможно Джек взят в заложники. Кертис утверждает план атаки на аэропорт. Береш под дулом пистолета выясняет у Джека планы АТЦ...
Серия 5
Террористов, которые имеют в арсенале фургон с полицейской символикой, беспрепятственно покидают здание ангара.Джек говорит Кертису найти мужчину в желтом галстуке....
Серия 6
Джек не работая больше на АТЦ предлагает Биллу сотрудничество.Газ уже отправлен в порт, а потом будут отправлены контейнерами в Москву.Террористы...
Серия 7
Джек узнает, что Каминнгс завербован. В сфере интересов террористов — нефтяные вышки.Контейнеры закрыты на кодовые замки. Целью газовой атаки должны...
Серия 8
Росслер убит, Мак Гилл узнает об этом от Бьюкеннона. Но на телефон убитого поступает звонок.Джек отправляется на встречу, вооруженый «жучком»…...
Серия 9
Эрвика убивают. Натансон предатель — его ищут. Атц не может выйти на след террористов. Мак-Гилл отказывается выпустить газ в здании....
Серия 10
Террористы Бьерко готовы атаковать президентский кортеж.Жена Логана также в машине.Суваров может узнать от нее, что Белый дом рискует их жизнью.... Серия 11
Тони прийдя в сознание спрашивает о Мишель, которая умерла.Пирс узнает, о том, что Логан был в курсе случившихся событий и...
Серия 12
Карточку МакГилла перепрограмирует на Острофф. Ким, не зная, что Джек живой, приехала в АТЦ.Гарднер предлагает свой план по поиску и...
Серия 13
Здание АТЦ уже заражено газом.Джек и психолог Барри пытаются помочь Хлое.МакГилл скрывает потерю карточки.Тони допрашивает Хендерсона, вырубив врача и угрожая...
Серия 14
Джек узнает о побеге хендерсона.Имя Коллет Стенджер ведет к Бьерку. Информация об этом найдена в компьютере Хендерсона. АТЦ нуждается в...
Серия 15
Хлоя проверяет Одри на предмет связей с Каммингсом или Хандерсоном. К Джеку Одри не допускают.На допросе Одри предлагается применить крайние...
Серия 16
В торговом центре взрыв. Джек воносит из дыма Бьерко.Газ ликвидирован. бьерко нужно срочно допросить.За всеми событиями стоит высокопосталенный человек.Хендерсон прячется...
Серия 17
Эвелин успела спрятать пленку с разговором в ячейке банка. Это разгоавор Хендерсона и Президента.Хлоя следила за Хендерсеном по спутнику, но...
Серия 18
Джек жив и Логану это не нравиться.Джек и Билл встречаются.Одри информирует Джека о приземлении самолета отца.Запись подтверждающая связь Логана с...
Серия 19
Звонит телефон мертвого агента.Это голос Хеллера.Хапись у Хендерсона и отставка Логана срывается. Хендрсон шантажирует Логана записью.Джек его преследует.
Серия 20
Джек ищет запись на самолете.Билл прячет Хлою, хотя сам может быть арестован.Джека вычисляют по списку пассажиров на борту.Хлоя указывает Джеку...
Серия 21
Запись у Джека.Джеку гарантируют защиту для сохранности записи.Диспечера вводят в обман и он сообщает, что самолет угнали. Теперь спецслужбы имеют...
Серия 22
Майлз портит запись и его переводят в Белый Дом — теперь он сотрудник Логана.Бьерко во время перевозки сбегает.Бьерко находится у...
Серия 23
Пошел отсчет перед запуском ракет на Москву.Адмирала Киркленда предупреждают, что подводная лодка захвачена.Группа захвата почти возле лодки и пытается предотвратить...
Серия 24
Джек в летной форме всеми силами пытается пробраться на вертолет. Логан летит один и Джек захватывает его в воздухе.Логана связывают...

MediaInfo

General
Complete name : E:\Сериалы новые\24 Часа\24 - 5 сезон\24.s05e01.dvdrip.rus.eng.novafilm.avi
Format : AVI
Format/Info : Audio Video Interleave
File size : 372 MiB
Duration : 42mn 26s
Overall bit rate : 1 227 Kbps
Writing application : VirtualDubMod 1.5.10.2 (build 2542/release)
Writing library : VirtualDubMod build 2542/release
Video
ID : 0
Format : MPEG-4 Visual
Format profile : Advanced Simple@L5
Format settings, BVOP : 2
Format settings, QPel : No
Format settings, GMC : No warppoints
Format settings, Matrix : Default (H.263)
Muxing mode : Packed bitstream
Codec ID : XVID
Codec ID/Hint : XviD
Duration : 42mn 26s
Bit rate : 957 Kbps
Width : 608 pixels
Height : 336 pixels
Display aspect ratio : 16:9
Frame rate : 23.976 fps
Color space : YUV
Chroma subsampling : 4:2:0
Bit depth : 8 bits
Scan type : Progressive
Compression mode : Lossy
Bits/(Pixel*Frame) : 0.195
Stream size : 291 MiB (78%)
Writing library : XviD 1.1.2 (UTC 2006-11-01)
Audio #1
ID : 1
Format : MPEG Audio
Format version : Version 1
Format profile : Layer 3
Mode : Joint stereo
Mode extension : MS Stereo
Codec ID : 55
Codec ID/Hint : MP3
Duration : 42mn 26s
Bit rate mode : Constant
Bit rate : 128 Kbps
Channel count : 2 channels
Sampling rate : 48.0 KHz
Compression mode : Lossy
Stream size : 38.9 MiB (10%)
Alignment : Aligned on interleaves
Interleave, duration : 42 ms (1.00 video frame)
Interleave, preload duration : 504 ms
Audio #2
ID : 2
Format : MPEG Audio
Format version : Version 1
Format profile : Layer 3
Mode : Joint stereo
Mode extension : MS Stereo
Codec ID : 55
Codec ID/Hint : MP3
Duration : 42mn 26s
Bit rate mode : Constant
Bit rate : 128 Kbps
Channel count : 2 channels
Sampling rate : 48.0 KHz
Compression mode : Lossy
Stream size : 38.9 MiB (10%)
Alignment : Aligned on interleaves
Interleave, duration : 42 ms (1.00 video frame)
Interleave, preload duration : 504 ms

6 сезон

Сезон/Серия: Сезон:6 /Серия 1-24 из 24
Продолжительность: 24 х 00:43:08--Описание: Серия кровопролитных терактов прогремела по всей Америке. У Агенства внутренней безопасности и КТП есть лишь одна ниточка, ведущая к лидеру исламских боевиков, предположительно, стоящему за волной террора. Один из сообщников согласен сдать его местонахождение, но одно из условий — выдача Джека Бауэра.
Качество: DVDRip
Формат: AVI
Видео кодек: XviD
Аудио кодек: МР3
Видео: 688x384 (16:9), 23.976 fps, ~1704 kbps avg, 0.269 bit/pixel
Аудио: 6 channels, 48 kHz, AC3 Dolby Digital, 3/2 (L,C,R,l,r) + LFE ch, ~448.00 kbps avg--

Список серий

Серия 1
Репортаж о террористическом акте, произошедшем в Сан-Антонио. Это уже не первый теракт подобного плана. На автобус спешит мужчина, но водитель...
Серия 2
Скрываясь в катакомбах от преследователей, в виде Файеда и сообщников, Джек слышит их разговор о том, что где Ассад уже...
Серия 3
Скрываясь в катакомбах от преследователей, в виде Файеда и сообщников, Джек слышит их разговор о том, что где Ассад уже...
Серия 4
Преследуя террориста, который движется на север, Ассад и Джек понимают, что с уменьшением количества машин на дорогах, они станут заметны....
Серия 5
Нумейр сбегает из тюрьмы, воспользовавшись помощью охранника.Его цель — Файед и об этом узнает Бьюкеннон. По досье, Хлоя узнает, что...
Серия 6
Репортаж из Лос-Анджелеса внимательно слушает вся команда во главе с Уэйн Палмером. В Валенсии зафиксирован ядерный взрыв. Леннокс сообщает Палмеру...
Серия 7
ВПалмер делает заявление по телевизору, которое смотрит вся группа агентов АТЦ.Карен сорится с Ленноксом по поводу возможного предотвращения беспорядков. ...
Серия 8
Зона, в центре которой ядерный гриб, огорожена полицейскими и агентами. По предварительным данным жертвами взрыва стали около 12 000 человек....
Серия 9
Хлоя по ситеме спутникового слежения, а Джек на вертолете, пытаются узнать местонахождение Морриса.Хлоя так обеспокоена его судьбой, что не справляется...
Серия 10
Захватив вертолет и присоединившись к подручным, Файед доставляет оставшиеся заряды. Русский генерал Дмитрий Греденко замешан в деле. Именно он и...
Серия 11
Внутри разгромленого грузовика, Джек не находит никого.Он сообщает по телефону Билу о бомбе в доме. Мерилин и Майло спасаясь от...
Серия 12
Греденко узнает от Фаейда. что через два часа план будет приведен в исполнение.Уэйн находится в поисках Леннокса. Посол спускается в...
Серия 13
Палмера отправляют в операционную.Рид незаметно покидает больницу.Логан под арестои и даже Джек не может ему помочь.В бункере, который расположен под...
Серия 14
Логан под охраной прибывает в АТЦ. В конференц зале собираются все и Хлоя, но Логан в неведении, что в заложники...
Серия 15
Джека отправляют в АТЦ. У него множественные перереломы ребер.Файед готовит заряд, находясь вместе с Греденко в Мохаве. Они знают, что...
Серия 16
В намерения правительства входит немедленная атака Ближнего Востока.Файед ждет прибытия группы захвата с минуту на минуту.Бомбы еще есть, но нет...
Серия 17
Отставка Палмера возможна лишь путем внесения поправки в Конституцию.Палмер также стремиться на совещание Кабинета Министров.Джек не собирается доверять Греденко, но...
Серия 18
Леннокс против атаки, но отменяют ее уже после вхождения ракеты на территорию Ближнего востока.Оказивается правительство на давало разрешения на то,...
Серия 19
Позвонив Ченгу, Джек узнает, что Одри находится в Пекине.Китайцы намерены узнать побольше о технологии русских и их интересуют оставшиеся заряды.Иначе...
Комментировать
Серия 20
Пытаясь вначале остановить, Дойл угоняет машину и по пути делает звонок в АТЦ, что бы рассказать о том, что Джек...
Серия 21
У Одри постравматический шок и на допросе она монотонно твердит одно и то же и у нее пропал слух.Надия приказывает...
Серия 22
Пытаясь лобиться приказа суда, о невозможности приближаться к Одри, Хеллер увозит ее из АТЦ. Джек зная хорошо Ченга, рвется на...
Серия 23
Джек усповаивает Мэрилин, иначе ее убьют. Джоша ведут к туннелю с канализацией, а всех заложников запихивают в одну комнату. ...
Серия 24
Джоша пытаются обменять на плату, иначе начнется война.

MediaInfo

General
Complete name : E:\Сериалы новые\24 Часа\24 - 6 сезон\06_01.avi
Format : AVI
Format/Info : Audio Video Interleave
File size : 667 MiB
Duration : 43mn 8s
Overall bit rate : 2 162 Kbps
Writing application : VirtualDubMod 1.5.10.2 (build 2540/release)
Writing library : VirtualDubMod build 2540/release
Video
ID : 0
Format : MPEG-4 Visual
Format profile : Advanced Simple@L5
Format settings, BVOP : 1
Format settings, QPel : No
Format settings, GMC : No warppoints
Format settings, Matrix : Default (MPEG)
Codec ID : XVID
Codec ID/Hint : XviD
Duration : 43mn 8s
Bit rate : 1 704 Kbps
Width : 688 pixels
Height : 384 pixels
Display aspect ratio : 16:9
Frame rate : 23.976 fps
Color space : YUV
Chroma subsampling : 4:2:0
Bit depth : 8 bits
Scan type : Progressive
Compression mode : Lossy
Bits/(Pixel*Frame) : 0.269
Stream size : 526 MiB (79%)
Writing library : XviD 1.2.0.dev47 (UTC 2006-11-01)
Audio
ID : 1
Format : AC-3
Format/Info : Audio Coding 3
Mode extension : CM (complete main)
Format settings, Endianness : Big
Codec ID : 2000
Duration : 43mn 8s
Bit rate mode : Constant
Bit rate : 448 Kbps
Channel count : 6 channels
Channel positions : Front: L C R, Side: L R, LFE
Sampling rate : 48.0 KHz
Bit depth : 16 bits
Compression mode : Lossy
Stream size : 138 MiB (21%)
Alignment : Split accross interleaves
Interleave, duration : 42 ms (1.00 video frame)
Interleave, preload duration : 500 ms

7 сезон

Сезон/Серия: Сезон:7 /Серия 1-24 из 24
Продолжительность: 24 х 00:46:28--Описание: В сутках 24 часа, но для Джека Бауэра - шефа элитного антитеррористического подразделения ЦРУ – этого времени явно недостаточно. Ровно за одни сутки он должен успеть спасти город и страну от очередной террористической угрозы. Каждый сезон, состоящий из 24 серий, повествует об одних сутках из жизни Джека, за один день он должен совершить невозможное...
Четыре года спустя после событий шестого сезона Джек Бауэр предстаёт перед подкомитетом Сената. Его обвиняют в неоправданной жестокости в ходе операций ныне расформированного КТУ. Однако слушания прерывают агенты ФБР. Им не обойтись без Бауэра, ведь национальная безопасность снова под угрозой, и за этим, похоже, стоит давний знакомый Джека...
Седьмой день начинается...
Качество: BDRip
Формат: AVI
Видео кодек: DivX
Аудио кодек: МР3
Видео: 624×352 (16:9), 23.976 fps, ~916 kbps avg, 0.174 bit/pixel
Аудио: 2 channels, 48 kHz, ~128.00 kbps avg--

Список серий

Серия 1
Старый приятель Джека планирует террористический акт, в то время как президент призывает к военным действиям в Африке.
Серия 2
Оружие попадает во вражеские руки, а супруга главы государства ведет собственное расследование смерти сына.
Серия 3
Выясняется, что вполне возможно исключить вероятность самоубийства сына Президента.
Серия 4
Бауэр решила довериться двум бывшим коллегам из ФБР.
Серия 5
Джек помогает террористам похитить свергнутого премьер-министра, в то время как агент ФБР и супруга президента находятся в серьезной опасности.
Серия 6
Президент бросает вызов требованиям.
Серия 7
Джек предотвращает террористический акт.
Серия 8
Джек и агент ФБР пытаются спастись от неминуемой смерти, но кому они могут доверять?
Серия 9
Президент мчится в больницу.
Серия 10
Молы идут на многое, чтобы остаться незамеченными и сохранять анонимность.Серия 11
Джек посещает Белый дом, чтобы допросить сенатора.
Серия 12
Генерал Джим подвергает опасности жизни Джека, Билла и президентской дочери.
Серия 13
Президент в опасности, а Джек и Билл пытаются противостоять генералу, в конце концов осознав, что весь этот заговор — лишь...
Серия 14
Джек навещает Сенатора, не подозревая, что на него открыла охоту ФБР.
Серия 15
ФБР ищет Джека, в то время как он и еще один жулик ищут деньги, доставленные контрабандой.
Серия 16
Мосс в поисках оружия массового поражения.
Серия 17
Джек пытается избавится от ядовитого вещества, репортер буквально прижимает Президентского начальника штаба к стене. Все пытаются определить местонахождение оружия.
Серия 18
Президент встречается с Джонасом Ходжесом. Смогут ли они уничтожить оружие прежде, чем ракеты будут разрушать американские города?
Серия 19
Джек убит горем. Ядовитый газ находится в руках врага.
Серия 20
Группа решает организовать другое нападение. Джек сожалеет о том, что доверял не тому человеку. Джонас просит убежища.Серия 21
Оливия хочет отомстить Джонасу. Джек, Хлоя, Дженис и Рене пытаются определить местонахождение араба, который хочет устроить новый террористический акт.
Серия 22
Ким в аэропорту, собирается улететь домой. Прикрытие начинается в Белом Доме.
Серия 23
Джек похищен, Ким в опасности.
Серия 24
Джек в больнице, имя предателя известно, и теперь Президент, Рене и Ким пытаются принять решение.

MediaInfo

General
Complete name : E:\Сериалы новые\24 Часа\24 - 7 сезон\24.s07e01.bdrip.rus.novafilm.avi
Format : AVI
Format/Info : Audio Video Interleave
File size : 350 MiB
Duration : 46mn 28s
Overall bit rate : 1 053 Kbps
Writing application : VirtualDubMod 1.5.10.2 (build 2542/release)
Writing library : VirtualDubMod build 2542/release
Video
ID : 0
Format : MPEG-4 Visual
Format settings, BVOP : 1
Format settings, QPel : No
Format settings, GMC : No warppoints
Format settings, Matrix : Default (H.263)
Muxing mode : Packed bitstream
Codec ID : DX50
Codec ID/Hint : DivX 5
Duration : 46mn 28s
Bit rate : 916 Kbps
Width : 624 pixels
Height : 352 pixels
Display aspect ratio : 16:9
Original display aspect ratio : 16:9
Frame rate : 23.976 fps
Color space : YUV
Chroma subsampling : 4:2:0
Bit depth : 8 bits
Scan type : Progressive
Compression mode : Lossy
Bits/(Pixel*Frame) : 0.174
Stream size : 304 MiB (87%)
Writing library : DivX 6.8.5 (UTC 2009-08-20)
Audio
ID : 1
Format : MPEG Audio
Format version : Version 1
Format profile : Layer 3
Mode : Joint stereo
Codec ID : 55
Codec ID/Hint : MP3
Duration : 46mn 28s
Bit rate mode : Constant
Bit rate : 128 Kbps
Channel count : 2 channels
Sampling rate : 48.0 KHz
Compression mode : Lossy
Stream size : 42.5 MiB (12%)
Alignment : Aligned on interleaves
Interleave, duration : 42 ms (1.00 video frame)
Interleave, preload duration : 504 ms

8 сезон

Сезон/Серия: Сезон:8 /Серия 1-24 из 24
Продолжительность: 24 х 00:42:47--Описание: Неизвестно, сколько времени прошло после событий седьмого дня. Восьмой день начинается в 16 часов. Действие происходит в Нью-Йорке. Вылечившийся Джек собирается улететь в Лос-Анджелес вместе со своей дочерью Ким, её мужем и дочкой Тери. Однако в его дверь стучится бывший информатор, у которого есть сведения об очередном готовящемся грандиозном теракте...
Качество: WEB-DLRip
Формат: AVI
Видео кодек: DivX
Аудио кодек: МР3
Видео: 624x352 (16:9), 23.976 fps, ~1006 kbps avg, 0.191 bit/pixel
Аудио: 2 channels, 48 kHz, ~128.00 kbps avg--

Список серий

Серия 1
Внимание Джека привлекает заговор убийства президента исламской республики.
Серия 2
C.T.U. задерживает репортера, которого подозревают в том, что он помог убийцам. Джек и Хлоя начинают собственное расследование.
Серия 3
Джек и Хлоя пытаются помешать запланированному убийству президента исламской республики.
Серия 4
Бывшей сотруднице ФБР, Рене Уокер, поручают важную миссию — найти и обезвредить российскую банду поставщиков оружия.
Серия 5
Русские недоверяют Рене, переговоры США и Камистана проходят на повышенных тонах, а прошлое аналитика СТУ Даны Уолш становится ее кошмаром....
Серия 6
У Джека повышается настроение, Рене идет на жертвы, Дана признается полиции в своем прошлом. Торговец оружием занят своими сыновьями, так...
Серия 7
Действия президента Хассана носят параноидальный характер, а Рене и Джек буквально расшевелили пчелиный рой среди русских преступных группировок в Нью-Йорке....
Серия 8
В то время как ядерное оружие едет в Камистанис, Далия конфликтует с собственным отцом, Дана, наконец, принимает важное для себя...
Серия 9
В Белом Доме хотят напасть на парня, Джек хочет его защитить.
Серия 10
Президент Тейлор просит помощи у Президента Хассана. Кайла пропадает без вести, в болоте Нью-Джерси находят два тела.Серия 11
Мать хочет спасти своего сына, разведенная пара вновь воссоединяется, чтобы найти дочь, а Джек пытается выиграть время и отговорить террориста-смертника...
Серия 12
Атомное топливо ожидает транспортировки в Манхэттен, Джек приходит в отель, Кейла находится в опасности, и офицер пробации из Южного округа...
Серия 13
Хлоя идет против Национальной Службы Безопасности, Джек и Коул попадают в перестрелку, доставляя атомное топливо в Манхэттен, эвакуация из ООН...
Серия 14
Повстанцы Камистана выдали президента Тейлора в обмен на Хасана, администрация Тейлора призывает к мятежу, CTU укрывает предателя, Джек попадает в...
Серия 15
Правила игры меняются не в лучшую сторону для президента Тейлора, угроза массового уничтожения ткацких станков. Между тем, президент Хасан делает...
Серия 16
Предатель заключает сделку, в то время как Джек и Рене пытаются спасти заложников. Посол России просит президента Тейлора держать Хасана...
Серия 17
Президент Тейлор просит помочь женщине и переходит в кампанию экс-президента, который имеет рычаги влияния на русских, Джек и Рене берут...
Серия 18
Визит президента Тейлора к русским заставляет их вернуться за стол мирных переговоров, но какой ценой? Джек идет в CTU допросить...
Серия 19
Президент Элисон Тейлор столкнулась лицом к лицу с невозможностью выбора, она привлекает частную охранную фирму для завершения задания под руководством...
Серия 20
В то время как СМИ находились на мирных переговорах, Джек и Коул выкрадывают предателя, измученного оперативниками, чтобы спасти его. Логана...
Серия 21
В то время как делегаты пересматривали мирное соглашение, Джек искал доказательства причастности Русских к трагедии. Экс-президент Логан отчаянно пытается нейтрализовать...
Серия 22
Операция Джека влечет за собой лужи крови, ножевое ранение, и недоверие Хлои к новому руководителю. Президент Тейлор чувствует себя одиноким,...
Серия 23
Президент Российской Федерации ведет мирные переговоры, Джек хочет справедливости.
Серия 24
Главы государств собирают заседание ООН в знак мира, CTU делает последнее усилие, чтобы разоблачить заговор, Логан и Пиллер связывают концы,...

MediaInfo

General
Complete name : E:\Сериалы новые\24 Часа\24 - 8 сезон\24.s08e01.webdl.rus.novafilm.avi
Format : AVI
Format/Info : Audio Video Interleave
File size : 350 MiB
Duration : 42mn 47s
Overall bit rate : 1 144 Kbps
Writing application : VirtualDubMod 1.5.10.2 (build 2542/release)
Writing library : VirtualDubMod build 2542/release
Video
ID : 0
Format : MPEG-4 Visual
Format settings, BVOP : 1
Format settings, QPel : No
Format settings, GMC : No warppoints
Format settings, Matrix : Default (H.263)
Muxing mode : Packed bitstream
Codec ID : DX50
Codec ID/Hint : DivX 5
Duration : 42mn 47s
Bit rate : 1 006 Kbps
Width : 624 pixels
Height : 352 pixels
Display aspect ratio : 16:9
Original display aspect ratio : 16:9
Frame rate : 23.976 fps
Color space : YUV
Chroma subsampling : 4:2:0
Bit depth : 8 bits
Scan type : Progressive
Compression mode : Lossy
Bits/(Pixel*Frame) : 0.191
Stream size : 308 MiB (88%)
Writing library : DivX 6.8.3-6.8.4 (UTC 2008-06-07)
Audio
ID : 1
Format : MPEG Audio
Format version : Version 1
Format profile : Layer 3
Mode : Joint stereo
Codec ID : 55
Codec ID/Hint : MP3
Duration : 42mn 47s
Bit rate mode : Constant
Bit rate : 128 Kbps
Channel count : 2 channels
Sampling rate : 48.0 KHz
Compression mode : Lossy
Stream size : 39.2 MiB (11%)
Alignment : Aligned on interleaves
Interleave, duration : 42 ms (1.00 video frame)
Interleave, preload duration : 504 ms

_________________
[Торрент-статистика]
[Профиль]  [ЛС] 
Показать сообщения:    
Ответить на тему

Текущее время: Сегодня 04:18

Часовой пояс: GMT + 4



Вы не можете начинать темы
Вы не можете отвечать на сообщения
Вы не можете редактировать свои сообщения
Вы не можете удалять свои сообщения
Вы не можете голосовать в опросах
Вы не можете прикреплять файлы к сообщениям
Вы не можете скачивать файлы