Ведьмак / Wiedźmin / The Witcher / Сезон: 1 / Серии: 1-13 из 13 (Марек Бродский / Marek Brodzki) [2002, фэнтези, приключения, DVDRip] MVO

Ответить на тему
 
Автор
Сообщение

awk05 ®

Пол:

Стаж: 4 года 5 месяцев

Сообщений: 1352

Репутация: 275 [+] [-]

Откуда: Западная Украина Ривне

Пост 12-Янв-2014 17:10

[Цитировать] 

--Ведьмак / The Witcher / Wiedźmin--
Год выпуска: 2002 г.
Страна: Польша Telewizja Polska
Жанр: фэнтези, приключения
Сезон/Серия: сезон 1 серии 1-13 из 13
Продолжительность: 13 х~ 00:50:00 минут
Перевод: Профессиональный (многоголосый закадровый)
Cубтитры: нет--Режиссер: Марек Бродский--В ролях: Михал Жебровский / Ведьмак Геральт , Збигнев Замаховский / Бард Лютик , Гражина Вольщак / Йеннифэр, Марта Битнер / Цири, Ежи Новак / Весемир, Анна Дымна /Нэннеке, Кинга Ильгнер / Рэнфри, Эва Висьневска / Каланте, Магдалена Гурска / Адда, Мачей Козловский /Фальвик и др.--Описание: В незапамятные времена, когда по земле бродили великаны и гномы, а коварные драконы похищали прекрасных принцесс, бесстрашные ведьмаки защищали мир от чудовищ, угрожавших людям.Среди них был Геральт из Ривии, воспитанник мудрых друидов, поклявшийся помогать всем, кто оказался в беде, не вмешиваясь в мирские дела. Но кровавые монаршие распри и человеческая жестокость вынудили его встать на сторону маленького королевства Цинтра, которое пало жертвой расы сверхчеловеков, кровью и мечом завоевывающей соседние страны.Теперь отважный Геральт должен обойти полсвета, чтобы разыскать похищенную королеву Цири, ибо только она может восстановить мир и порядок в родной Цинтре. Защищая правду и карая зло, отважный ведьмак тяжелым мечом и великой магией освободит родные земли от тени захватчиков и вернет обитателям древних земель долгожданный мир и покой.--Качество: DVDRip
Формат видео: AVI
Видео кодек: XviD
Аудио кодек: AC3
Видео: 704x416 (1.69:1), 25.000 fps, ~1600 kbps avg, 0.219 bit/pixel
Аудио: 2 канала, 48 kHz, ~192 kbps-- --

MI

Общее
Полное имя : Ведьмак_7.81\Ведьмак_7.81\1 - Детство.avi
Формат : AVI
Формат/Информация : Audio Video Interleave
Размер файла : 683 Мбайт
Продолжительность : 52 м.
Общий поток : 1802 Кбит/сек
Программа кодирования : VirtualDubMod 1.5.10.3 | www.virtualdub-fr.org || (build 2550/release)
Библиотека кодирования : VirtualDubMod build 2550/release
Видео
Идентификатор : 0
Формат : MPEG-4 Visual
Профиль формата : Advanced Simple@L5
Параметр BVOP формата : 2
Параметр QPel формата : Нет
Параметр GMC формата : Без точки перехода
Параметр матрицы формата : Выборочная
Идентификатор кодека : XVID
Идентификатор кодека/Подсказка : XviD
Продолжительность : 52 м.
Битрейт : 1600 Кбит/сек
Ширина : 704 пикселя
Высота : 416 пикселей
Соотношение сторон : 1,692
Частота кадров : 25,000 кадров/сек
Цветовое пространство : YUV
Субдискретизация насыщенности : 4:2:0
Битовая глубина : 8 бит
Тип развёртки : Прогрессивная
Метод сжатия : С потерями
Бит/(Пиксели*Кадры) : 0.219
Размер потока : 607 Мбайт (89%)
Библиотека кодирования : XviD 64
Аудио
Идентификатор : 1
Формат : AC-3
Формат/Информация : Audio Coding 3
Расширение режима : CM (complete main)
Идентификатор кодека : 2000
Продолжительность : 52 м.
Вид битрейта : Постоянный
Битрейт : 192 Кбит/сек
Каналы : 2 канала
Расположение каналов : Front: L R
Частота : 48,0 КГц
Битовая глубина : 16 бит
Метод сжатия : С потерями
Размер потока : 72,8 Мбайт (11%)
Выравнивание : Разделение по промежуткам
Продолжительность промежутка : 40 мс. (1,00 видеокадр)
Время предзагрузки промежутка : 500 мс.

Скриншоты

Список серий

1. Dzieciństwo / Детство
2. Nauka / Обучение
3. Człowiek - pierwsze spotkanie / Человек - первая встреча
4. Smok / Дракон
5. Okruch lodu / Осколок льда
6. Calanthe / Каланте
7. Dolina Kwiatów / Долина цветов
8. Rozdroże / Перепутье
9. Świątynia Melitele / Святилище Мелителе
10. Mniejsze zło / Меньшее зло
11. Jaskier / Лютик
12. Falwick / Фальвик
13. Ciri / Цири

_________________
[Торрент-статистика]
[Профиль]  [ЛС] 
Показать сообщения:    
Ответить на тему

Текущее время: Сегодня 18:18

Часовой пояс: GMT + 4



Вы не можете начинать темы
Вы не можете отвечать на сообщения
Вы не можете редактировать свои сообщения
Вы не можете удалять свои сообщения
Вы не можете голосовать в опросах
Вы не можете прикреплять файлы к сообщениям
Вы не можете скачивать файлы