Горец / Highlander / Сезон: 1-6 из 6 / Серии: 1-119 из 119 (Дэннис Бери, Ричард Мартин, Питер Эллис, Томас Дж. Райт, Адриан Пол, Рэй Остин и др.) [1992-1998, Боевиик, Фантастика, DVDRip-AVC] DVO(ОРТ) + Original

Ответить на тему
 
Автор
Сообщение

awk05 ®

Пол:

Стаж: 4 года 5 месяцев

Сообщений: 1352

Репутация: 275 [+] [-]

Откуда: Западная Украина Ривне

Пост 08-Янв-2014 02:01

[Цитировать] 

--Горец / Highlander-- Год выпуска: 1992-1998
Страна: Канада, США, Франция
Жанр: Боевиик, Фантастика
Сезон/Серия: Сезон:1-6 /Серия 1-119 из 119
Продолжительность: 119 х ~00:49:00
Перевод: Профессиональный двухголосый закадровый
Русские субтитры: есть--Режиссёр: Дэннис Бери, Ричард Мартин, Питер Эллис, Томас Дж. Райт, Адриан Пол, Рэй Остин, Jorge Montesi, Дуан Кларк, Джеймс Брюс, Rene Manzor, Марио Аццопарди, Paolo Barzman, Clay Borris, Джерри Чиккоритти,
Робин Дэвис, Нилл Фернли, Bruno Gantillon, Gerard Hameline,. Yves Lafaye, George Mendeluk, Дэниэл Винье, Чарльз Уилкинсон, Paul Ziller--В главных ролях Адриан Пол, Стэн Кирш, Джим Бернс, Александра Вандернот, Питер Уингфилд, Elizabeth Gracen, Филип Акин, Лиза Ховард, Питер Хадсон--Описание: Он родился 400 лет назад в горах Шотландии, он бессмертный , но не только он один... Так начинается один из самых лучших сериалов созданных на американском телевидении в фантастическом жанре. В центре сюжета история бессмертного Дункана МакЛауда на протяжении 400 лет, пытающегося, несмотря на непростые жизненные ситуации и постоянную опасность лишиться жизни от меча другого бессмертного, найти свою любовь и быть счастливым. Компанией производящей сериал были вложены фантастические средства на костюмы, инвентарь, шикарные натурные съемки. Сериал снимался не только в Америке, несколько сезонов были сняты во Франции. Но колоссальные затраты были окуплены с лихвой: сериал имел бешенный успех во всем мире и был закуплен для показа во всех странах, исключая страны ближнего Востока. Также "Горец" получил множество престижных теленаград, как в Америке, так и за рубежом. Не стоит говорить о том, что сериал стал лучшей работой американского актера Эдриана Пола, сделавшей его международной звездой и любимцем женщин всего мира.-- --

Горец 1

--Горец / Highlander-- Сезон/Серия: Сезон:1 /Серия 1-22 из 22
Продолжительность: 22 х 00:48:47--Описание: Я — Дункан Маклауд, родился четыреста лет назад в горах Шотландии. Я один из Бессмертных. Настало время Сбора, когда под ударами мечей падут головы и польётся животворящая сила. В конце останется только один.
В 1992 году на волне популярности кинофильма «Горец» 1986 года стартовал сериал Горец (HIGHLANDER: THE SERIES), где главного героя Коннора Маклауда сменил его родственник — Дункан. 1 сезон сериала включает в себя 22 эпизода, на протяжении которых происходит знакомство с главными героями (Дунканом, Тессой, Ричи) и законами мира, в котором они живут. В конце сезона герои сериала уезжают из Америки в Париж, куда затем будут еще неоднократно возвращаться. Места французской столицы, в которых будут развиваться события, станут впоследствии культовыми для фанатов: церковь Дария, набережная Турнель и книжный магазин наблюдателей. В последнем эпизоде Дункан встречает неизвестную ранее угрозу — смертных людей, которые охотятся за бессмертными…--Качество: DVDRip-AVC
Формат: mkv
Видео кодек: DivX
Аудио кодек: AC-3
Видео: 704x480 (4:3), 24.229 fps, ~1 617 kbps avg, 0.197 bit/pixel
Аудио 1: 2 channels, 48 kHz, ~192.00 kbps avg /Russian/
Аудио 2: 6 channels, 48 kHz, ~384.00 kbps avg /English/--

Скриншоты

Список серий

1x01 Встреча The Gathering
Бессмертный Слэн Квинс нарушает мирную жизнь Дункана Маклауда и его возлюбленной Тэссы Ноэль. Он бросает вызов Дункану, предлагая померяться силами. Предотвратить стычку пытается учитель Дункана и его дальний родственник Коннор Маклауд. Невольным свидетелем событий становится Ричи Райан, промышляющий мелким воровством и решивший ограбить магазин Дункана.
1x02 Фамильное древо Family Tree
Ричи, ставший подопечным Дункана, мечтает узнать кто его родители, ведь он совершенно ничего о них не помнит. В поисках он сталкивается с аферистом Джо Скэнлоном, у которого крупные долги в казино. С целью проникнуть в магазин Маклауда, аферист выдает себя за пропавшего отца Ричи. На фоне этих событий Дункан вспоминает прошлое, о том как он впервые узнал о своем бессмертии и о том как его предал названный отец
1x03 Отвергнутый путь The Road Not Taken
Знакомый Ричи погибает от воздействия восточного наркотического вещества. Дункан понимает, что уже видел нечто подобное и подозревает в смерти своего приятеля, который занимается исследованиями в области восточных трав, Бессмертного Ким Сана. Состав смертельного наркотического зелья действительно был изготовлен Ким Саном, но был похищен его учеником Чу Лином. Дункан и Ким отправляются на поиски Чу Лиина
1x04 Невиновный Innocent Man
Вблизи маленького городка в лесу убит Бессмертный Лукас Дезире, друг Маклауда, с которым они познакомились во время гражданской войны. В убийстве подозревают бродягу, ветерана Вьетнамской войны. Дункану жаждет найти настоящего убийцу и не дать осудить невиновного
1x05 Свободное падение Free Fall
Совершить самоубийство, чтобы выдать себя за молодого бессмертного и привлечь внимание Горца – цель Фелисии Мартинс, новой знакомой Ричи. Но в реализации плана появляется ряд трудностей, например, как утаить 200 лет своей биографии.
1x06 Плохой день в корпусе "А" Bad Day in Building "A"
Случайно оказавшись в группе заложников, захвативших здание суда с целью освобождения своего лидера Брайана Слэйда, Маклауд привлекает внимание к своей особе, когда террористы хотят принести в жертву одного из захваченных людей. Среди заложников остаются друзья Маклауда Тэсса и Ричи, и Дункан начинает мстить бандитам.
1x07 Люди гор Mountain Men
Тэсса похищена обитателями гор, предводителем которых является Бессмертный Калеб. Добиваясь привязанности Тэссы, Кэлеб хочет сделать её своей женой. Преследуя похитителей по их следам Дункан, знающий эти горы как свои пять пальцев, настигает похитителей намного раньше, чем шериф. Все дело в том, что Дункан 150 лет назад, бродил по этой местности с Бессмертным другом Карлом, который много чему научил Маклауда.
1x08 Смертоносная медицина Deadly Medicine
Маклауд «умирает» в больнице вследствие автомобильной аварии. Пытаясь покинуть больницу, Дункан оказывается похищен сумасшедшим доктором, работавшим в операционной и узнавшем тайну бессмертия Маклауда. Осчастливить человечество – вот о чём мечтает врач. А когда Дункан сбегает от похитителя, он убивает медсестру Барбару Мэдисон, при этом все улики указывают на бессмертного Маклауда.
1x09 "Морская Ведьма" The Sea Witch
Ники, бывшая девушка Ричи, пытается сбежать из города с маленькой дочуркой Мелиндой и начать новую жизнь. При этом она крадет у торговцев наркотиками 50 тысяч долларов. Случайно столкнувшись с Ричи, Ники с Мелиндой оказываются в доме Маклауда. Главарем банды наркодельцов, вышедших на её след, оказывается Бессмертный Алексей Вошин.
1x10 Месть сладка Revenge Is Sweet
В антикварной лавке Маклауда появляется роковая брюнетка по имени Ребекка Лорд и приобретает саблю Бессмертного Уолтера Рейнхардта. С того момента как сабля, ранее принадлежавшая Бессмертному попадает к ней в руки вокруг МакЛауда и его друзей начинают происходить странные вещи.
1x11 Не видеть зла See No Evil
Блондинки всего города в страхе и панике – в городе появился маньяк, который нападает только на белокурых девушек, терроризируя и убивая их. Блондинка Натали Бэрд, подруга Тэссы, едва не стала жертвой убийцы. Маклауд вспоминает Бессмертного Маркуса Королуса, который сошёл с ума из-за измены своей возлюбленной блондинки.
1x12 Свидетель Eyewitness
Убита Анна Уэллер, но единственный кто видел это – Тэсса, а тело убитой женщины пропало бесследно. Поэтому полицейские не обращают внимания на свидетельство Тэссы. Занявшись собственным расследованием, МакЛауд узнает, что бывший сожитель Анны – Бессмертный, которому Анна угрожала раскрытием тайны бессмертия. Произошедшее вслед за этим покушение на Тэссу, указывает на то, что убийц надо искать среди полицейских
1x13 Узы братства Band Of Brothers
Для Дункана Маклауда всегда много значил День битвы при Ватерлоу, где он встретил монаха Дария. Великий полководец Дарий мог покорить всю Европу, но посвятил свое существование миру и его сохранению, поэтому распустил армию. Бессмертный Грэйсон, не может этого простить Дарию и пытается мстить. На защиту Дария встает Дункан Маклауд.
1x14 Во имя зла For Evil's Sake
Один из великих убийц в истории – Бессмертный Кайлер, встречается с МакЛаудом в Париже. Это уже третья встреча двух Бессмертных, две другие были отмечены для Дункана значительными событиями – убийством барона Дешилдса, которого Маклауд охранял, будучи его телохранителем, и знакомством с Тэссой.
1x15 Завтра, за которое умираем For Tomorrow We Die
При ограблении ювелирной лавки в Париже, грабители используют ядовитый газ. Вскоре на исповеди в церкви Бессмертный Ксавье Сент-Клод, исповедуясь Дарию, признается в содеянном. Несмотря на поиски полиции, Дарий не может нарушить тайну исповеди, а Маклауд, догадавшись о случившемся начинает искать Ксавье самостоятельно.
1x16 Зверь в глубине The Beast Bellow
Ещё в семнадцатом веке Маклауд помогает спастись от преследователей Бессмертному Урсу, спрятав того в аббатстве. Конечно, в настоящее время аббатства давно уже нет и Урса живёт в подземелье под знаменитым оперным театром. Слушая прерасную музыку он влюбляется в певицу Кэролайн, дни которой как оперной дивы сочтены, не задумываясь, он становится пешкой в её игре.
1x17 Защитить Грэйс Saving Grace
Бессмертный Карло Синдаро не в силах смириться с разрывом со своей любовницей Бессмертной Грейс и любыми силами пытается заставить её вернуться. Так или иначе, но муж Грейс, умирает, о чём она рассказывает священнику Дарию. Все подозрения несомненно падают на Синдаро. МакЛауд, познакомив Грэйс с Тэссой, решает помочь ей и присечь попытки Синдаро вернуть её.
1x18 Леди и тигр The Lady And The Tiger
Случайно, находясь с Тэсс на цирковом представлении, Маклауд встречает Аманду, свою бывшую Бессмертную любовницу. Сейчас Аманде нужна помощь. Дело в том, что её бывший приятель, вышедший недавно из тюрьмы, куда именно Аманда его и посадила, угрожает ей расправой. Не оставляет сомнений, что Дункан не может оставить женщину без защиты.
1x19 Глаз смотрящего Eye Of The Beholder
Известный кутюрье Габриэль Пейтон, ранее известный как знаменитый вор и покоритель женских сердец, убивает свою смертную любовницу, которая по совместительству работает у него моделью. Дело в том, что девушка случайно наткнулась в доме на тайник с ворованными сокровищами. На место убитой Синтии претендует другая длинноногая модель, которая очень нравится Ричи.
1x20 Ангел мщения Avenging Angel
Бессмертный Альфред Кэхил, который воскрес после смертельной раны, решил, что он избранный ангел, который должен отомстить «извращенцам». Его жертвами призваны стать женщины проститутки и их сутенеры. Одна из подруг Тэссы, работающая в настоящее время проституткой, может стать его очередной жертвой. Правила игры, по которым живут Бессмертные Кэхил отрицает, и не хочет понять МакЛауда, объясняющего природу и настоящее призвание им подобных
1x21 Некуда бежать Nowhere To Run
Приемная дочь Бессмертного Эверетта Беллиана изнасилована. Виновником оказывается сын Алана Ротвуда, давнего приятеля Тэсс. Марк, так зовут сына Алана, который в настоящее время работает дипломатом, все отрицает. МакЛауд, который пытается мирно разрешить конфликт добивается тем самым абсолютно противоположного результата
1x22 Охотники The Hunters
Несколько бессмертных приятелей МакЛауда бесследно исчезли. Буквально в течение нескольких часов в церкви находят мертвого Дария. Так как на священной земле Бессмертные не могут позволить себе убивать, подозрения сразу же падают на смертных. В комнате, где жил Дарий находится старинный манускрипт, таинственная хроника Наблюдателей.

MediaInfo

General
Unique ID : 246074397917671180563694351024359470006 (0xB9203484B054B991AF6D6C5ADCCBF3B6)
Complete name : E:\Сериалы новые\Highlander DVDRip-AVC\Season 1\Highlander.s01e01.x264.ac3.rus.eng The Gathering.mkv
Format : Matroska
Format version : Version 2
File size : 767 MiB
Duration : 48mn 47s
Overall bit rate : 2 196 Kbps
Encoded date : UTC 2011-12-26 09:01:53
Writing application : mkvmerge v5.2.0 ('I can't explain') built on Dec 18 2011 18:12:03
Writing library : libebml v1.2.3 + libmatroska v1.3.0
Attachment : Encode log
Video
ID : 1
Format : AVC
Format/Info : Advanced Video Codec
Format profile : High@L3.1
Format settings, CABAC : Yes
Format settings, ReFrames : 12 frames
Codec ID : V_MPEG4/ISO/AVC
Bit rate : 1 617 Kbps
Width : 704 pixels
Height : 480 pixels
Display aspect ratio : 4:3
Frame rate mode : Variable
Original frame rate : 24.229 fps
Standard : NTSC
Color space : YUV
Chroma subsampling : 4:2:0
Bit depth : 8 bits
Scan type : Progressive
Bits/(Pixel*Frame) : 0.197
Writing library : x264 core 107 r1745 4785e8e
Encoding settings : cabac=1 / ref=12 / deblock=1:-2:-1 / analyse=0x3:0x133 / me=tesa / subme=10 / psy=1 / psy_rd=1.00:0.10 / mixed_ref=1 / me_range=24 / chroma_me=1 / trellis=2 / 8x8dct=1 / cqm=0 / deadzone=21,11 / fast_pskip=0 / chroma_qp_offset=-3 / threads=6 / sliced_threads=0 / nr=0 / decimate=1 / interlaced=0 / constrained_intra=0 / bframes=6 / b_pyramid=2 / b_adapt=2 / b_bias=0 / direct=3 / weightb=1 / open_gop=0 / weightp=2 / keyint=240 / keyint_min=24 / scenecut=40 / intra_refresh=0 / rc=2pass / mbtree=0 / bitrate=1617 / ratetol=1.0 / qcomp=0.70 / qpmin=10 / qpmax=51 / qpstep=4 / cplxblur=20.0 / qblur=0.5 / ip_ratio=1.30 / pb_ratio=1.20 / aq=1:1.00
Language : English
Default : Yes
Forced : No
Audio #1
ID : 2
Format : AC-3
Format/Info : Audio Coding 3
Mode extension : CM (complete main)
Format settings, Endianness : Big
Codec ID : A_AC3
Duration : 48mn 47s
Bit rate mode : Constant
Bit rate : 192 Kbps
Channel count : 2 channels
Channel positions : Front: L R
Sampling rate : 48.0 KHz
Bit depth : 16 bits
Compression mode : Lossy
Stream size : 67.0 MiB (9%)
Language : Russian
Default : Yes
Forced : No
Audio #2
ID : 3
Format : AC-3
Format/Info : Audio Coding 3
Mode extension : CM (complete main)
Format settings, Endianness : Big
Codec ID : A_AC3
Duration : 48mn 47s
Bit rate mode : Constant
Bit rate : 384 Kbps
Channel count : 6 channels
Channel positions : Front: L C R, Side: L R, LFE
Sampling rate : 48.0 KHz
Bit depth : 16 bits
Compression mode : Lossy
Stream size : 134 MiB (17%)
Language : English
Default : No
Forced : No

Горец 2

--Горец / Highlander-- Сезон/Серия: Сезон:2 /Серия 1-22 из 22
Продолжительность: 22 х 00:48:37--Описание: Он бессмертный. Он родился 400 лет назад в горах Шотландии, но бессмертен не только он. Есть и другие… Одни служат добру, другие злу. Веками он сражается с силами зла, его единственное убежище Священная земля. Он умрёт, если лишится головы и потеряет животворную силу. В конце останется только один. Он — Дункан Маклауд… Горец.
2 сезон Горца по части увлекательных сюжетов не уступил предыдущему, хотя эпизоды приняли немного другой мотив. Больше драматизама и философии, которые станут характерной чертой Горца. Поступки героев становятся сложнее, на сцену выходят Наблюдатели — тайное общество, члены которого веками наблюдают за бессмертными и ведут хроники, но никогда не вмешиваются… или не вмешивались до сих пор. Французская актриса Александра Вандернут (Тесса) покидает сериал, и романтическая линия в сериале меняется. Дункан снова встречает прекрасную обольстительницу Аманду (Элизабет Грейсен), знакомую зрителю по первому сезону сериала (эпизод «Леди с тигром»), и их отношения вновь возрождаются. Надолго ли? Об этом нам поведают следующие сезоны.--Качество:DVDRip-AVC
Формат: mkv
Видео кодек: AVC
Аудио кодек: AC-3
Видео: 704x480 (4:3), 23.976 fps, ~1 847 kbps avg, 0.228 bit/pixel
Аудио: 2 channels, 48 kHz, ~192.00 kbps avg /Russian/
Аудио: 6 channels, 48 kHz, ~448.00 kbps avg /English/--

Список серий

2x01 Наблюдатели The Watchers
Маклауд, Тесса и Ричи возвращаются в Секоувер с целью найти убийц Дария. И поиски не могли не привести его в книжную лавку фолиантов. Дункан замечает у хозяина лавки Джо Доусона странную татуировку на запястье. Именно от Джо Доусона Маклауд узнает о таинственных стражах, которые объединены в своеобразный рыцарский орден.
2x02 Уроки света Studies in Light
Бессмертный Грегор приглашает своего друга Маклауда на выставку, где показываются его фотоработы. Все фотографии буквально пестрят сценами, связанными с насилием. На выставке он встречает знакомых, среди которых его постаревшая возлюбленная. Так как рассказать о своем Бессмертии он не может, Дункан говорит, что он внук Дункана Маклауда. Но фотографии со сценами насилия не перестают волновать Дункана.
2x03 Превращение Turnabout
Впервые посетив спортзал Чарли ДеСалво, Маклауд и Ричи встречают старого приятеля - Майкла Мура, который мечтает покончить с преследующим его Бессмертным Квентином Барнсом. А ведь буквально вчера Маклауд уже слышал о Барнсе.
2x04 Тьма The Darkness
Ещё в девятнадцатом веке цыганка напророчила Дункану, что он никогда не женится. Вряд ли предсказание сбудется – Маклауд неожиданно делает Тэссе предложение в баре. Встреченная там предсказательница Грета предрекает Тэссе беду, и ясновидение сбывается – Тэсса похищена Паллином Вольфом – наблюдателем, который отступился от правил и убивает Бессмертных ради развлечения.
2x05 Око за око An Eye for an Eye
Смерть Тэссы тяжело переживается Дунканом, даже Ричи не может поддержать его, так как пытается сжиться с мыслью о собственном бессмертии. Став свидетелями террористического акта и пытаясь его предотвратить, Маклауд и Ричи попадают в переплет, в результате которого погибает один из террористов, а второй, которым оказывается женщина, начинает мстить.
2x06 Гетто The Zone
В городских трущобах, которые называются Гетто, убит один из Наблюдателей. Джо Доусон просит Маклауда выяснить, не является ли Канаан, контролирующий трущобы, Бессмертным. Для этого Дункан должен отправиться в самый центр городского Гетто.
2x07 Возвращение Аманды The Return of Amanda
Аманда, которая вновь возникла в жизни Дункана, в очередной раз пытается встать на праведный путь и покончить с образом жизни, связанным с преступлениями. Маклауд, слышавший это уже не первый раз, мало верит подобным заверениям и оказывается прав, замечая, что за Амандой следят. Дункан думает, что Наблюдатели, но это федеральные агенты.
2x08 Месть меча Revenge of the Sword
Звезда фильма о боевых искусствах – Джимми Сан - является учеником Чарли ДеСалво. Во время съемок очередного фильма в спортзале, теперь принадлежащем Дункану, происходит убийство одного из актёров. Здесь не может быть случайности, решает Маклауд, и наверняка сам Джимми в опасности. Вместе с Чарли ДеСалво он решает защитить парня.
2x09 Беги, чтобы выжить Run for Your Life
Полицейский с белым цветом кожи и таинственной татуировкой на запястье чуть не убивает чернокожего Карла Робинсона, бывшего раба, имеющего надежду на свободное будущее, но в очередной раз став жертвой расизма. Но если Карл думает о расизме, то Маклауд знает наверняка, что полицейский Картер – отступник Наблюдатель, который ведет охоту на Бессмертных.
2x10 Эпитафия Томми Epitaph for Tommy
Столкнувшись утром во время пробежки с Бессмертным Галеном, Маклауд принимает бой, но вдруг, прервав его внезапно, Гален кидается наутек и сбивает мчащимся автомобилем парня. Смерть молодого человека, который оказался журналистом по имени Томми, кажется Дункану не случайной, и он начинает расследование.
2x11 Боец The Fighter
Томми Салливан – бывший боксер и друг Маклауда, просит его оказать поддержку бойцу Джорджу, которого он тренирует, на что Дункан в итоге соглашается. В это же время Чарли помогает Томми ухаживать за молоденькой официанткой. Но идиллию нарушает смерть конкурента Салливана, пытавшегося переманить Джорджа, - его находят умершим в результате насильственной смерти. Маклауд начинает подозревать старого друга в нечестной игре.
2x12 Под знаменем власти Under Color of Authority
Бессмертный, преследующий на улице молодую девушку Лауру, вынужден прекратить преследование, столкнувшись с Ричи. Помогая Лауре скрыться, Ричи узнает, что она убегает от жестокого мужа, который обвинил её в несуществующей краже. Но Бессмертный, который гнался за Лаурой, обладает слишком хорошей репутацией, чтобы поверить словам девушки. Маклауд решает разобраться, что в самом деле произошло.
2x13 Благослови дитя Bless the Child
Мать Сара Лайтфут с ребенком убегает от преследования человека, который хочет отнять у неё кроху. К счастью в лесу она встречает Маклауда и Чарли, которые волею судьбы застряли на дороге в лесу. Как не помочь матери, желающей спасти свое дитя. Дункан с другом бросаются ей помочь спастись от преследования.
2x14 Союз нечестивых, часть 1 Unholy Alliance, Part 1
Странные обстоятельства, которые повлекли за собой убийства нескольких Бессмертных, не могли не вызвать резонанса в кругу посвященных. О смерти себе подобных Дункан узнает от Джо Доусона. Оказывается, действуя не по Правилам, но и не нарушая их, Бессмертный убивает других с помощью людей. Маклауд узнает, кто стоит за всем этим - Ксавье Сент-Клод. Найдя его убежище и вступив в бой, Дункан не доводит поединок до конца – из-за внезапного появления Стража-отступника
2x15 Союз нечестивых, часть 2 Unholy Alliance, Part II
Потеря дружеских отношений между Маклаудом и Джоржем не помешала последнему тайно дать ему адрес, по которому скрываются Хортон и Ксавье Сент-Клод. Новый бой опять не завершен, но Маклауд преследует врагов по пятам. Следующая их встреча будет уже в Париже, куда Маклауд в поисках врагов прибывает вместе с агентом Рене Деляйн.
2x16 Вампир The Vampire
Бессмертный Вард, женящийся ради наследства на богатых женщинах и убивающий их после свадьбы, выбрал своей следующей жертвой дочь приятеля Дункана Маклауда. По наводке Доусона Дункан отправляется на его поиски.
2x17 Поджигатель войны Warmonger
Бессмертный Артур Дрейк, центр огромного зла, связан с Дунканом клятвой о ненападении. Но сдержит ли Маклауд обещание в свете последних ужасных событий?
2x18 Дочь Фараона Pharaoh's Daugher
Открыв саркофаг со старинной египетской мумией внутри, Маклауд находит Нефертири, которая была похоронена вместе со своей госпожой Клеопатрой. Воскрешенная Нефертири винит в смерти своей госпожи и гибели Египта римского полководца, которому она жаждет отомстить.
2x19 Наследие Legacy
Аманда, появившись как всегда внезапно, рассказывает об убийстве своей близкой подруги и наставницы Ребекки. Она даже знает имя убийцы. Каждому своему ученику Ребекка давала кусочек очень древнего кристалла. По легенде собравший их все вместе сможет создать Талисман, который сделает его непобедимым...
2x20 Блудный сын Prodigal Son
Ричи постоянно преследует незнакомый Бессмертный, подставляя его подозреваемым в убийствах, которые совершает сам. Маклауд, как наставник, должен помочь Ричи, но вслед за ним на Дункана выходит «охотник» Мартин Хайд. Получается, Ричи выдал Дункана
2x21 Подделка, часть I Counterfeit, Part I
Люди с татуировками нападают на Ричи, но его спасает Пит Уайлдер. Ричи думает, что нашёл нового друга, но Маклауд считает, что тот специально подстроил нападение. Подобный разлад приводит к серьёзной ссоре. Ведь никому не известно, что ситуацию подстроил Джеймс Хортон
2x22 Подделка, часть II Counterfeit, Part II
В Париж приезжает Джо Доусон, чтобы сообщить о том, что Хортон жив. Маклауд случайно знакомится с девушкой, как две капли воды похожей на Тессу. Джо и Ричи встревожены, но на самого Доусона совершено неожиданное покушение.

MediaInfo

General
Unique ID : 202519800569778565800857275263178729402 (0x985BE5133E126FEB90377FE7B21F67BA)
Complete name : E:\Сериалы новые\Highlander DVDRip-AVC\Season 2\Highlander.s02e01.x264.ac3.rus.eng The Watchers.mkv
Format : Matroska
Format version : Version 2
File size : 866 MiB
Duration : 48mn 37s
Overall bit rate : 2 490 Kbps
Encoded date : UTC 2012-01-12 06:38:28
Writing application : mkvmerge v5.2.0 ('I can't explain') built on Dec 18 2011 18:12:03
Writing library : libebml v1.2.3 + libmatroska v1.3.0
Attachment : Encode log
Video
ID : 1
Format : AVC
Format/Info : Advanced Video Codec
Format profile : High@L3.1
Format settings, CABAC : Yes
Format settings, ReFrames : 12 frames
Codec ID : V_MPEG4/ISO/AVC
Duration : 48mn 37s
Bit rate : 1 847 Kbps
Width : 704 pixels
Height : 480 pixels
Display aspect ratio : 4:3
Frame rate mode : Constant
Frame rate : 23.976 fps
Original frame rate : 24.032 fps
Standard : NTSC
Color space : YUV
Chroma subsampling : 4:2:0
Bit depth : 8 bits
Scan type : Progressive
Bits/(Pixel*Frame) : 0.228
Stream size : 626 MiB (72%)
Writing library : x264 core 107 r1745 4785e8e
Encoding settings : cabac=1 / ref=12 / deblock=1:-2:-1 / analyse=0x3:0x133 / me=tesa / subme=10 / psy=1 / psy_rd=1.00:0.10 / mixed_ref=1 / me_range=24 / chroma_me=1 / trellis=2 / 8x8dct=1 / cqm=0 / deadzone=21,11 / fast_pskip=0 / chroma_qp_offset=-3 / threads=6 / sliced_threads=0 / nr=0 / decimate=1 / interlaced=0 / constrained_intra=0 / bframes=6 / b_pyramid=2 / b_adapt=2 / b_bias=0 / direct=3 / weightb=1 / open_gop=0 / weightp=2 / keyint=240 / keyint_min=24 / scenecut=40 / intra_refresh=0 / rc=2pass / mbtree=0 / bitrate=1847 / ratetol=1.0 / qcomp=0.70 / qpmin=10 / qpmax=51 / qpstep=4 / cplxblur=20.0 / qblur=0.5 / ip_ratio=1.30 / pb_ratio=1.20 / aq=1:1.00
Language : English
Default : Yes
Forced : No
Audio #1
ID : 2
Format : AC-3
Format/Info : Audio Coding 3
Mode extension : CM (complete main)
Format settings, Endianness : Big
Codec ID : A_AC3
Duration : 48mn 37s
Bit rate mode : Constant
Bit rate : 192 Kbps
Channel count : 2 channels
Channel positions : Front: L R
Sampling rate : 48.0 KHz
Bit depth : 16 bits
Compression mode : Lossy
Stream size : 66.8 MiB (8%)
Language : Russian
Default : Yes
Forced : No
Audio #2
ID : 3
Format : AC-3
Format/Info : Audio Coding 3
Mode extension : CM (complete main)
Format settings, Endianness : Big
Codec ID : A_AC3
Duration : 48mn 37s
Bit rate mode : Constant
Bit rate : 448 Kbps
Channel count : 6 channels
Channel positions : Front: L C R, Side: L R, LFE
Sampling rate : 48.0 KHz
Bit depth : 16 bits
Compression mode : Lossy
Stream size : 156 MiB (18%)
Language : English
Default : No
Forced : No
Menu
00:00:00.000 : en:The Watchers
00:09:11.050 : en:Just A Regular Joe
00:12:14.499 : en:Sale On Spy Gear
00:18:21.932 : en:Mac Gets The Tour
00:26:13.569 : en:Hunters On A House Call
00:30:17.580 : en:Lynn's Loving Daddy
00:40:56.953 : en:Collateral Damage

Горец 3

--Горец / Highlander-- Сезон/Серия: Сезон:3 /Серия 1-22 из 22
Продолжительность: 22 х 00:48:27
Субтитры: есть--Описание: Он бессмертный. Он родился 400 лет назад в горах Шотландии, но бессмертен не только он. Есть и другие… Одни служат добру, другие злу. Веками он сражается с силами зла, его единственное убежище Священная земля. Он умрёт, если лишится головы и потеряет животворную силу. В конце останется только один. Он — Дункан Маклауд… Горец.
3 сезон уже ставшего популярным сериала, кроме множества интересных сюжетов, запомнился зрителям первым появлением едва ли не самого популярного персонажа — Митоса, старейшего живущего бессмертного, видевшего еще Бронзовый век. Это самый неоднозначный герой в сериале, и до самого конца мы так и не получаем многие ответы на вопросы о его жизни, истории, характере и загадках…--Качество:DVDRip-AVC
Формат: mkv
Видео кодек: AVC
Аудио кодек: AC-3
Видео: 704x480 (4:3), 23.976 fps, ~1 501 kbps avg, 0.185 bit/pixel
Аудио: 2 channels, 48 kHz, ~192.00 kbps avg /Russian/
Аудио: 6 channels, 48 kHz, ~448.00 kbps avg /English/--

Список серий

3x01 Самурай The Samurai
Когда-то Маклауд дал обещание старому самураю Хидео Кото охранять всех его потомков и членов их семей и даже получил в дар старинный меч с рукояткой в виде головы дракона. Теперь молодая родственница Кото просит помощи у Дункана.
3x02 Линия огня Line of Fire
Ричи случайно оказывается отцом, его подружка является к нему с маленьким ребенком. Так как Бессмертные не могут иметь потомство, то Ричи знает об обмане, но хочет иметь сына, поэтому признает ребенка.
3x03 Революционер The Revolutionary
Пол Кэрос когда-то сражался в рядах гладиаторов в Древнем Риме, а сейчас борется за справедливость на Балканах. Он зовет Маклауда присоединиться к нему, но тот сомневается в праведности такой борьбы.
3x04 Крест Святого Антония The Cross of St.Antoine
Возлюбленную Джо Доусона убивают накануне их свидания. В процессе личного расследования Маклауд начинает подозревать, что убийство мог совершить бессмертный Джон Дурган.
3x05 Обряд посвящения Rite of Passage
В автокатастрофе погибает дочь старого приятеля Дункана и возрождается Бессмертной. Стараясь стать её наставником, Дункан приводит Мишель домой, но та не может поверить в происходящее. Появившийся любитель женщин из сословия Бессмертных переманивает девушку к себе и заставляет Маклауда вступить с ним в схватку.
3x06 Храбрость Courage
Доктор Энн Линдси принимает ухаживания Маклауда, но однажды, придя к ней на работу забрать ее на свидание, он встречает давнего друга и одного из лучших фехтовальщиков XIX века Брайана Калена, попавшего после автокатастрофы в больницу.
3x07 Ягненок The Lamb
Дункан и Ричи встречают Кенни – Бессмертного, который умер десятилетним и часто нуждается в защите, но, оказывается, мальчик может справиться и без помощи посторонних.
3x08 Одержимость Obsession
Дэвид Кеог мечтает жениться, но его избранница смертная и не хочет выходить замуж за бессмертного. Маклауд хочет, чтобы Дэвид оставил женщину в покое, но тот не хочет отступать.
3x09 Тени Shadows
Маклауда преследуют сновидения со странным смыслом и галлюцинации, в которых его убивает Неизвестный в капюшоне. Все это начинается с приездом в город скульптора Джона Гэррика, приятеля Дункана.
3x10 Шантаж Blackmail
Маклауда шантажирует Роберт Вэверли, который заснял на видеокамеру поединок между Дунканом и Питером Матлином. Целью шантажа является убийство жены Вэверли.
3x11 Вендетта Vendetta
Мелкий гангстер в прошлом, Бенни Карбаса, провоцирует ссору Маклауда с Саймоном Лэнгом. Он объясняет это давним раздором, который случился около полувека назад, когда Лэнг был совсем не тем, за кого он себя выдает сейчас.
3x12 Они служат They Also Serve
У одного молодого Бессмертного слишком много побед для столь юного возраста. Его имя Майкл Кристиан, и его Наблюдатель слишком хорошо информирован о слабых местах других Бессмертных.
3x13 Слепая вера Blind Faith
Джон Кирин, сбитый автомобилем, умирает в госпитале. Своим воскрешением он поражает Энн Линдси, которая не понимая, что тот Бессмертный, рассказывает о произошедшем Маклауду.
3x14 Песня палача Song of the Executioner
У Бесммертного Павла, настоятеля монастыря Св. Христофора, Маклауд нашёл приют в далеком 1658 году. Они договорились встретиться, но Павел исчезает. Дункан вспоминает бывшего ученика Павла, с которым он познакомился в монастыре, и то, как они тогда расстались.
3x15 Несчастный Star-Crossed
В парижском аэропорту Маклауд встречает Хью Фицкерна. Тот познакомился с прекрасной женщиной и ради неё начинает преподавать кулинарное искусство.
3x16 Митос Methos
Маклауд пытается опередить Каласа, который, схватив своего Наблюдателя, ищет Митаса – легендарного Бессмертного, который прожил уже 5000 лет и обладает уникальной силой.
3x17 Возьми назад ночь Take Back the Night
Уличные бродяги убивают мужа Бессмертной Кедвин. Маклауд убеждает её не мстить, ведь совсем недавно она сама просила его об этом.
3x18 Свидетельство Testimony
Дункан хочет рассказать Энн, что он Бессмертный, и предоставить ей право выбора. Энн летит к нему и в аэропорту оказывает медпомощь девушке, оказавшейся наркокурьером, которую контролирует Бессмертный Кристов.
3x19 Смертные грехи Mortal Sins
Маклауд и Энн вместе, но девушку ожидают испытания, связанные с таким выбором. Горец должен постоянно оберегать людей и сражаться с теми, кто за ним охотится.
3x20 Обоснованное сомнение Resonable Doubt
Маклауд посредник в сделке по выкупу у грабителей картины Леонардо да Винчи. На встрече оказывается, что грабители ему известны – это племянница Мориса Симона и бессмертный Лукас.
3x21 Финал, часть I Finale, Part I
Аманда помогает Каласу бежать из тюрьмы, чтобы убить его. Калас сбегает и сразу начинает искать Дункана, а заодно и Аманду, зная, что та хотела его подставить.
3x22 Финал, часть II Finale, Part II
Калас крадет базу данных с именами всех известных Бессмертных и их наблюдателей, и, убивая всех, кто попадется на его пути, начинает шантажировать Маклауда. Его ищут Наблюдатели, а друзья Дункана уговаривают его не идти на сделку. Но Горец решается на финальную битву.

MediaInfo

General
Unique ID : 234487807971151636527163783578365473702 (0xB068B58759C1EFAFBD488CFA53E033A6)
Complete name : E:\Сериалы новые\Highlander DVDRip-AVC\Season 3\Highlander.s03e01.x264.ac3.rus.eng The Samurai.mkv
Format : Matroska
Format version : Version 2
File size : 743 MiB
Duration : 48mn 27s
Overall bit rate : 2 145 Kbps
Encoded date : UTC 2012-01-21 07:44:04
Writing application : mkvmerge v5.2.0 ('I can't explain') built on Dec 18 2011 18:12:03
Writing library : libebml v1.2.3 + libmatroska v1.3.0
Video
ID : 1
Format : AVC
Format/Info : Advanced Video Codec
Format profile : High@L3.1
Format settings, CABAC : Yes
Format settings, ReFrames : 12 frames
Codec ID : V_MPEG4/ISO/AVC
Duration : 48mn 27s
Bit rate : 1 501 Kbps
Width : 704 pixels
Height : 480 pixels
Display aspect ratio : 4:3
Frame rate mode : Constant
Frame rate : 23.976 fps
Original frame rate : 24.030 fps
Standard : NTSC
Color space : YUV
Chroma subsampling : 4:2:0
Bit depth : 8 bits
Scan type : Progressive
Bits/(Pixel*Frame) : 0.185
Stream size : 507 MiB (68%)
Writing library : x264 core 107 r1745 4785e8e
Encoding settings : cabac=1 / ref=12 / deblock=1:-2:-1 / analyse=0x3:0x133 / me=tesa / subme=10 / psy=1 / psy_rd=1.00:0.10 / mixed_ref=1 / me_range=24 / chroma_me=1 / trellis=2 / 8x8dct=1 / cqm=0 / deadzone=21,11 / fast_pskip=0 / chroma_qp_offset=-3 / threads=6 / sliced_threads=0 / nr=0 / decimate=1 / interlaced=0 / constrained_intra=0 / bframes=6 / b_pyramid=2 / b_adapt=2 / b_bias=0 / direct=3 / weightb=1 / open_gop=0 / weightp=2 / keyint=240 / keyint_min=24 / scenecut=40 / intra_refresh=0 / rc=2pass / mbtree=0 / bitrate=1501 / ratetol=1.0 / qcomp=0.70 / qpmin=10 / qpmax=51 / qpstep=4 / cplxblur=20.0 / qblur=0.5 / ip_ratio=1.30 / pb_ratio=1.20 / aq=1:1.00
Language : English
Default : Yes
Forced : No
Audio #1
ID : 2
Format : AC-3
Format/Info : Audio Coding 3
Mode extension : CM (complete main)
Format settings, Endianness : Big
Codec ID : A_AC3
Duration : 48mn 27s
Bit rate mode : Constant
Bit rate : 192 Kbps
Channel count : 2 channels
Channel positions : Front: L R
Sampling rate : 48.0 KHz
Bit depth : 16 bits
Compression mode : Lossy
Stream size : 66.6 MiB (9%)
Language : Russian
Default : Yes
Forced : No
Audio #2
ID : 3
Format : AC-3
Format/Info : Audio Coding 3
Mode extension : CM (complete main)
Format settings, Endianness : Big
Codec ID : A_AC3
Duration : 48mn 27s
Bit rate mode : Constant
Bit rate : 448 Kbps
Channel count : 6 channels
Channel positions : Front: L C R, Side: L R, LFE
Sampling rate : 48.0 KHz
Bit depth : 16 bits
Compression mode : Lossy
Stream size : 155 MiB (21%)
Language : English
Default : No
Forced : No
Menu
00:00:00.000 : en:The Samurai
00:10:15.247 : en:Shipwrecked
00:13:12.124 : en:Ancient Vow
00:18:15.026 : en:Swordplay Or Poetry?
00:26:52.510 : en:Shipboard Confrontation
00:30:48.146 : en:Sepaku
00:43:40.384 : en:Japan Showdown
00:45:25.755 : en:Quickening

Горец 4

--Горец / Highlander-- Сезон/Серия: Сезон:4 /Серия 1-22 из 22
Продолжительность: 22 х 00:48:48
Субтитры: есть--Описание: Он — Дункан Маклауд… Горец. Он родился в 1592 в горах Шотландии, но он жив до сих пор. Он бессмертный. Четыреста лет он был воином… любовником… путешественником, веками он сражается с другими Бессмертными. Победителю достаётся голова врага и его сила. Я — Наблюдатель, член тайного общества мужчин и женщин, мы следим и ведём хроники, но никогда не вмешиваемся. Мы знаем правду о Бессмертных. В конце останется только один. И пусть это будет Дункан Маклауд… Горец.
4 сезон Горца оказался не менее богатым на яркие сюжеты. В первых эпизодах Дункан возвращается на свою родину в Шотландию, где не преминул укрепить местную легенду о герое-рыцаре, и вступить в бой с одним из бессмертных. В сериале появляются комедийные эпизоды, такие как «Двойной Орел», с обворожительной Амандой, вновь появившейся в жизни Горца.--Качество:DVDRip-AVC
Формат: mkv
Видео кодек: AVC
Аудио кодек: AC-3
Видео: 704x480 (4:3), 23.976 fps, ~1 839 kbps avg, 0.227 bit/pixel
Аудио: 2 channels, 48 kHz, ~192.00 kbps avg /Russian/
Аудио: 6 channels, 48 kHz, ~448.00 kbps avg /English/--

Список серий

4x01 Родина Homeland
Маклауд покупает кельтский браслет, который он когда-то подарил своей смертной возлюбленной, а после её трагической гибели - похоронил вместе с ней. Сейчас он хочет вернуть браслет в её могилу. Вернувшись в Гленфиннан, он узнает о страшных ритуальных убийствах.
4x02 Братья по оружию Brothers in Arms
В Бессмертного по имени Эндрю Корд стреляли - как узнает Маклауд, это был снайпер Чарли Де Сальво. Чарли хочет уничтожить Корда, убившего его возлюбленную Мару. Доусон пытается убедить Маклауда не принимать ничьей стороны в этой битве.
4x03 Невиновный The Innocent
Ричи встречается с Майки - огромным по величине Бессмертным, отличающимся уровнем развития ребенка и влюбленным в поезда. Ричи отвозит Майки к Маклауду, но Маклауд считает, что ничего хорошего из этого не выйдет. Однако выясняется, что за Майки охотится Тайлер Кинг.
4x04 Вожак стаи Leader of the Pack
Ричи встречает Марка Росча, панка, убившего Тессу. Ричи мечтает отомстить ему за гибель Тессы. Маклауд же узнает о возвращении своего заклятого врага, Питера Каниса. Канис, как всегда, натравливает на дичь собак.
4x05 Двойной орёл Double Eagle
Старый друг Маклауда по имени Кит О'Брэди ищет хорошую скаковую лошадь. Маклауд помнит Кита со времен Золотой лихорадки в Сан-Франциско, где у того был салун "Двойной орел" - позже он проиграл его в покер Аманде.
4x06 Воссоединение Reunion
Кенни вынужден спасаться бегством от Бессмертного Теренса Кинкэйда. Кенни обращается за помощью к Энн Линдси, а та вызывает на подмогу Маклауда.
4x07 Полковник The Colonel
Полковник Саймон Киллиан командовал полком в первой мировой войне. Маклауд оказался свидетелем последней кровавой битвы и затем участвовал в заседании трибунала, осудившем полковника. Прошло семьдесят лет, и Киллиан вернулся, чтобы отомстить.
4x08 Герои поневоле Reluctant Heroes
Возвращаясь домой из кино, Маклауд и Ричи становятся свидетелями попытки убийства бакалейщика Дэвида Маркума. Им удается спасти бакалейщика, но его жена Алиса убита. Оказывается, за этим стоит Бессмертный Пол Кинмэн...
4x09 Гнев Кали The Wrath of Kali
Древняя статуя индусской богини Кали - новое приобретение университетского музея. Статую боготворит Бессмертный Камир, и он уже много веков ищет ее, чтобы забрать обратно в Индию. И только Маклауд знает, что Камир принадлежит к древнему культу почитателей Кали, которые занимались ритуальными удушениями...
4x10 Рыцарство Chivalry
Маклауд узнает, что его бывшая любовница завела роман с Ричи. Маклауд предупреждает своего ученика о маниакальной ревности Кристин, но тот влюблен и не желает ничего слушать. Когда Кристин пытается убить Ричи и его сводную сестру, Маклауд вынужден с ней сразиться, но кодекс рыцарской чести не позволяет горцу убить женщину, которую он когда-то любил.
4x11 Вне времени Timeless
Маклауд пытается спасти от смерти свою бывшую подопечную. Талантливая и красивая молодая пианистка уже несколько раз становилась мишенью для убийцы.
4x12 Бомбежка The Blitz
Хирург-травматолог Энн Линдси работает на "скорой помощи". Она выезжает на вызов после взрыва в метро, но во время следующего взрыва она попадает в ловушку. Это напоминает Маклауду, как он и его возлюбленная Диана во время второй мировой войны попали под бомбоудар. Диана тогда погибла.
4x13 Нечто страшное Something Wicked
Бессмертный Колтек, индеец, - шаман, сражающийся с негодяями-Бессмертными. Но и над ним зло начинает простирать свою длань... Дункану приходится сразиться с другом.
4x14 Избавление Deliverance
Джо вызывает из Европы Митоса, чтобы он помог одержимому злом Маклауду вновь обрести себя.
4x15 Обещания Promises
В 1755 году Маклауд дал обещание выполнить просьбу Кассима, чтобы спасти жизнь своего юного друга. Теперь Бессмертный Кассим, которому он дал обещание, требует, чтобы Маклауд убил диктатора, руководящего одной из стран Среднего Востока.
4x16 Мафусаилов дар Methuselah's Gift
Для спасения умирающей подруги Митос и Аманда решают похитить из особняка Наблюдателей, их штаб-квартиры, Кристалл Мафусаила. По легенде этот Кристалл способен превратить человека в Бессмертного. Ограбление проваливается — Митос схвачен, но Аманде удается скрыться с Кристаллом. Маклауд всеми силами пытается помочь друзьям.
4x17 Бессмертный Чимоли The Immortal Cimoli
Фокусника-неудачника Дэнни Чимоли сбил грузовик - теперь он Бессмертный. Аманда и Маклауд сталкиваются с ним в цирке, где Чимоли показывает фокусы: ему стреляют в сердце, а он, к ликованию публики, остается жив и невредим. Чимоли и не подозревает, что уже стал частью Большой Игры...
4x18 Сквозь темное стекло Through A Glass, Darkly
Маклауд встречает на святой земле старого друга и узнает, что тот странным образом потерял память. Горец советуется с Митосом и просит помочь, как наблюдателя.
4x19 Дважды виновный Double Jeopardy
В Париже Маклауд встречается со старой знакомой - американским спецагентом. Теперь она помолвлена и ищет преступника, чей "почерк" идентичен манере работы Ксавье Сен-Клода.
4x20 До самой смерти Till the death
Бессмертная пара Роберт и Джина Валикур прожили вместе 300 лет, играя свадьбу раз в сто лет, а теперь Джина хочет развестись. Чтобы помочь Роберту вернуть её, Маклауд уговаривает Митоса притвориться неизвестным молодым бессмертным, охотящимся за головой Роберта.
4x21 Судный день Judgement Day
Происходит загадочная серия убийств наблюдателей, и последние обвиняют Джо Доусона в предательстве (по правилам он не должен был сообщать бессмертному, кто он такой); Митос рассказывает об этом Маклауду и, следуя его просьбе, выясняет подробности этого дела, после чего помогает Дункану проникнуть к наблюдателям, чтобы тот объяснил им ситуацию. Позже, в то время, как идет «суд» над друзьями Митоса, он попадает на него и, показывая дневник «наблюдателя Митоса» (которым последние десять лет является он сам), пытается доказать, что наблюдатель, будучи Митосу не посторонним человеком, а другом, узнал о старейшем из бессмертных то, чего не узнал бы никто другой.
4x22 За минуту до полуночи One Minute to Midnight
На этот раз наблюдатели открыли на Маклауда сезон охоты, думая, что именно он, спасая Доусона, убил их людей. Джо в это время скрывается у Митоса, а Дункан встречается со своим старым другом, Джакобом Галати, жену которого когда-то убил Хортон, почему он, собственно, и стал мстить наблюдателям. Частично оправившись от ранений, полученных в перестрелке, Доусон снова отправляется к наблюдателям в надежде объяснить, что Маклауд ни в чём не виновен; последовавший за ним Митос помогает ему попасть в здание, после чего рассказывает об этом Маклауду.

MediaInfo

General
Unique ID : 214788825526370841770621798706704131533 (0xA196D2B560A0D1DEAC9410AE934DA5CD)
Complete name : E:\Сериалы новые\Highlander DVDRip-AVC\Season 4\Highlander.s04e01.x264.ac3.rus.eng Homeland.mkv
Format : Matroska
Format version : Version 2
File size : 867 MiB
Duration : 48mn 48s
Overall bit rate : 2 483 Kbps
Encoded date : UTC 2012-01-26 03:38:08
Writing application : mkvmerge v5.2.0 ('I can't explain') built on Dec 18 2011 18:12:03
Writing library : libebml v1.2.3 + libmatroska v1.3.0
Attachment : Encode log
Video
ID : 1
Format : AVC
Format/Info : Advanced Video Codec
Format profile : High@L3.1
Format settings, CABAC : Yes
Format settings, ReFrames : 12 frames
Codec ID : V_MPEG4/ISO/AVC
Duration : 48mn 48s
Bit rate : 1 839 Kbps
Width : 704 pixels
Height : 480 pixels
Display aspect ratio : 4:3
Frame rate mode : Constant
Frame rate : 23.976 fps
Original frame rate : 24.112 fps
Standard : NTSC
Color space : YUV
Chroma subsampling : 4:2:0
Bit depth : 8 bits
Scan type : Progressive
Bits/(Pixel*Frame) : 0.227
Stream size : 626 MiB (72%)
Writing library : x264 core 107 r1745 4785e8e
Encoding settings : cabac=1 / ref=12 / deblock=1:-2:-1 / analyse=0x3:0x133 / me=tesa / subme=10 / psy=1 / psy_rd=1.00:0.10 / mixed_ref=1 / me_range=24 / chroma_me=1 / trellis=2 / 8x8dct=1 / cqm=0 / deadzone=21,11 / fast_pskip=0 / chroma_qp_offset=-3 / threads=6 / sliced_threads=0 / nr=0 / decimate=1 / interlaced=0 / constrained_intra=0 / bframes=6 / b_pyramid=2 / b_adapt=2 / b_bias=0 / direct=3 / weightb=1 / open_gop=0 / weightp=2 / keyint=240 / keyint_min=24 / scenecut=40 / intra_refresh=0 / rc=2pass / mbtree=0 / bitrate=1839 / ratetol=1.0 / qcomp=0.70 / qpmin=10 / qpmax=51 / qpstep=4 / cplxblur=20.0 / qblur=0.5 / ip_ratio=1.30 / pb_ratio=1.20 / aq=1:1.00
Language : English
Default : Yes
Forced : No
Audio #1
ID : 2
Format : AC-3
Format/Info : Audio Coding 3
Mode extension : CM (complete main)
Format settings, Endianness : Big
Codec ID : A_AC3
Duration : 48mn 48s
Bit rate mode : Constant
Bit rate : 192 Kbps
Channel count : 2 channels
Channel positions : Front: L R
Sampling rate : 48.0 KHz
Bit depth : 16 bits
Compression mode : Lossy
Stream size : 67.0 MiB (8%)
Language : Russian
Default : Yes
Forced : No
Audio #2
ID : 3
Format : AC-3
Format/Info : Audio Coding 3
Mode extension : CM (complete main)
Format settings, Endianness : Big
Codec ID : A_AC3
Duration : 48mn 48s
Bit rate mode : Constant
Bit rate : 448 Kbps
Channel count : 6 channels
Channel positions : Front: L C R, Side: L R, LFE
Sampling rate : 48.0 KHz
Bit depth : 16 bits
Compression mode : Lossy
Stream size : 156 MiB (18%)
Language : English
Default : No
Forced : No
Text
ID : 4
Format : UTF-8
Codec ID : S_TEXT/UTF8
Codec ID/Info : UTF-8 Plain Text
Language : English
Default : No
Forced : No
Menu
00:00:00.000 : en:Homeland
00:10:37.703 : en:Forbidden Love
00:16:58.817 : en:The Blood Eagle
00:22:17.536 : en:Debra's Bracelet
00:31:05.497 : en:Sword Of The Chieftain
00:34:29.668 : en:First Buzz
00:42:20.772 : en:A Legend Fulfilled
00:44:28.833 : en:Quickening

Горец 5

--Горец / Highlander-- Сезон/Серия: Сезон:5 /Серия 1-18 из 18
Продолжительность: 18 х 00:48:50
Субтитры: есть English--Описание: Он — Дункан Маклауд… Горец. Он родился в 1592 в горах Шотландии, но он жив до сих пор. Он бессмертный. Четыреста лет он был воином… любовником… путешественником, веками он сражается с другими Бессмертными. Победителю достаётся голова врага и его сила. Я — Наблюдатель, член тайного общества мужчин и женщин, мы следим и ведём хроники, но никогда не вмешиваемся. Мы знаем правду о Бессмертных. В конце останется только один. И пусть это будет Дункан Маклауд… Горец.
5 сезон, в отличие от предыдущих, состоит всего из 18 эпизодов. по насыщенности сюжетных ходов нисколько им не уступает. Здесь — режиссерские дебюты Эдриана Пола, самые удачные эпизоды в сезоне — «Приближается всадник» (11-й эпизод), «Откровение 6:8″ (12-й эпизод) и «Новый Прометей» (17-й эпизод), повествующий «бессмертную историю» поэта Байрона. Сотый эпизод «Откровение 6:8″ стал едва ли не самым популярным из всего сериала. Хотя безусловное лидерство в этом замечательном сюжете о Всадниках Апокалипсиса принадлежит вовсе не Дункану. Концовка сезона вызвала отзывы куда более противоречивые, чем любой другой эпизод сериала…--Качество:DVDRip-AVC
Формат: mkv
Видео кодек: AVC
Аудио кодек: AC-3
Видео: 704x480 (4:3), 23.976 fps, ~1 551 kbps avg, 0.191 bit/pixel
Аудио: 2 channels, 48 kHz, ~192.00 kbps avg /Russian/
Аудио: 6 channels, 48 kHz, ~448.00 kbps avg /English/--

Список серий

5x01 Пророчество Prophecy
Маклауд после долгого перерыва возвращается в США. Его находит Кассандра, но Кассандру ищет бессмертный, хорошо владеющий гипнозом.
5x02 Конец невинности End of Innocence
Ричи теряет свою толерантность к другим бессмертным из-за "урока", преподанного ему Маклаудом. Поединок со случайным бессмертным приводит к тому, что теперь за Ричи гонится учитель покойного Картера. Именно этот бессмертный в свое время убил учителя Маклауда. А вот Доусон принимает решение выйти из Ордена.
5x03 Охота на человека Manhunt
Старый друг Маклауда играет в бейсбол. Но однажды после игры к нему приходит бессмертный, которого Карл убивает. К сожалению, убийство тут же предается огласке, а расследует его агент Мэтью Маккормик.
5x04 Славные деньки Glory days
В одной из нью-йоркских гостиниц происходит заказное убийство. Киллер - никто иной, как Джонни Кей. Когда-то он мечтал быть таким, как Капоне; с тех пор моральных качеств у него не прибавилось. А вот Доусон узнает, что привязанность со времен колледжа не имеет срока давности.
5x05 Драматическая развязка Dramatic License
Дункан становится героем любовного романа. Ему хотелось бы знать, случайно ли писательница Кэролин Марш включила его в роман и что конкретно она о нем знает. Но другой Бессмертный, также ставший героем книги, открыл охоту на авторшу.
5x06 Деньги не главное Money No Object
Маклауд и Аманда вновь встречаются с Кори Рейнзом, с которым Аманду связывает бурное прошлое. Кори не прочь вновь совлечь Аманду с верной дорожки. Поможет ли сопернику Маклауд?
5x07 Призрак Haunted
Дженнифер Хилл овдовела, но она утверждает, что дух ее покойного мужа всюду следует за ней. Она приходит к другу мужа, Дункану Маклауду, и просит отомстить за мужа - тогда тот обретет покой.
5x08 Оловянный божок Little Tin God
Дерек был обречен погибнуть еще подростком в уличных войнах, но вера в Бога помогла ему встать на ноги и стать певцом госпелов. После смерти он встречается с Господом, и Бог дарует ему вечную жизнь - с условием, что он сразится с Сатаной. Вот только чье обличье принял Сатана?
5x09 Вестник The Messenger
Ричи встречает бессмертного, который называет себя Митосом и проповедует отказ от поединков ради мира между бессмертными. Маклауд знакомит его с настоящим Митосом, но Ричи продолжает верить «вестнику», и это едва не стоит ему жизни.
5x10 Валькирия The Valkyrie
Маклауд случайно сталкивается со своей старой знакомой, Ингрид, которой когда-то представился шанс убить Гитлера, но она не смогла этого сделать, и с тех пор убивает всех потенциальных диктаторов.
5x11 Приход всадника Comes a Horseman
Кассандра охотится за старым врагом — Кроносом, одним из Четырёх Всадников, истребивших её племя в бронзовом веке; Маклауд тоже когда-то сталкивался с этим бессмертным, хотя тот и скрывался под другим именем. В то же время становится ясно, что Митос — ещё один Всадник, которого называли Смертью; Кронос находит его, убеждает воссоединиться и получает согласие. Кассандра между тем выходит на Кроноса, но Митас вмешивается в бой и выводит из него одного участника, но не Кроноса. С ним разбирается Горец. Однако Митас помешал закончиться и этой битве. В последней сцене он обещает Кроносу привести его к двум оставшимся всадникам, которые ещё живы, и снова собрать их вместе.
5x12 Откровение Revelation 6:8
Всадники снова вместе, все четверо. Но Митос связывается с Маклаудом и сообщает об их планах, только Кронос оказался хитрее: он взял в плен Кассандру. Митос пожал плечами, а когда пришёл Дункан (убивший к тому времени четвёртого Всадника — Каспиана), выпустил Кассандру, схватившись с Сайласом. Кронос и Сайлас повержены. Кассандра пытается убить Митоса, но Дункан просит оставить ему жизнь.
5x13 Выкуп Ричарда Редстона The Ransom of Richard Redstone
Семья Марины владела замком Ле Мартен на протяжении многих лет, но сейчас ее владения под угрозой. Марина похищает американского миллионера, чтобы выплатить долги и сохранить имение. Однако человек, которого она считает миллионером Ричардом Редстоуном, на самом деле Ричи Райан.
5x14 Дуэнде Duende
Бессмертный испанец Оттавио Конзоне преуспел в битве на мечах и в поединках в красноречии. Много лет назад он пытался поделиться своими знаниями с Маклаудом, но потом их пути разошлись из-за соперничества в любви.
5x15 Тронный Камень The Stone of Scone
По официальным заявлениям Британского правительства легендарный Тронный камень шотландских королей похищен из Вестминстерского аббатства. Было ли это похищение невинной шуткой или серьезным предприятием неких Бессмертных?
5x16 Прости нам долги наши Forgive Us Our Trespasses
После завершения войны в XVIII веке Маклауд одержим жаждой убийства всех англичан, уничтожавших его народ — шотландцев. Теперь в жизни Маклауда настала пора платить за свои преступления. Стивен Кин хочет отомстить Дункану за смерть своего друга - англичанина, и Дункан знает, что Стивен имеет на это полное право.
5x17 Новый Прометей The Modern Prometheus
Бессмертный, друг Митоса, известный ранее как поэт Байрон, стал рок-певцом. Однако он не оставляет своих привычек и вовлекает смертных в свои опасные игры. Рано или поздно случится трагедия.
5x18 Архангел Archangel
Два археолога, Фостер и Ландри, обнаруживают древнюю зороастрийскую статую. Это воплощение демона, с которым предстоит сразиться Маклауду, — только Дункан отказывается в это верить. Однако ему приходится принять это как факт, когда убитые им люди и Бессмертные вновь возникают на его пути.

MediaInfo

General
Unique ID : 190297451163822378814284924388660861099 (0x8F29F4B961AA76EAA67D40953431D8AB)
Complete name : E:\Сериалы новые\Highlander DVDRip-AVC\Season 5\Highlander.s05e01.x264.ac3.rus.eng Prophecy.mkv
Format : Matroska
Format version : Version 2
File size : 767 MiB
Duration : 48mn 50s
Overall bit rate : 2 195 Kbps
Encoded date : UTC 2012-02-03 07:16:04
Writing application : mkvmerge v5.2.0 ('I can't explain') built on Dec 18 2011 18:12:03
Writing library : libebml v1.2.3 + libmatroska v1.3.0
Attachment : Encode log
Video
ID : 1
Format : AVC
Format/Info : Advanced Video Codec
Format profile : High@L3.1
Format settings, CABAC : Yes
Format settings, ReFrames : 12 frames
Codec ID : V_MPEG4/ISO/AVC
Duration : 48mn 50s
Bit rate : 1 551 Kbps
Width : 704 pixels
Height : 480 pixels
Display aspect ratio : 4:3
Frame rate mode : Constant
Frame rate : 23.976 fps
Original frame rate : 24.121 fps
Standard : NTSC
Color space : YUV
Chroma subsampling : 4:2:0
Bit depth : 8 bits
Scan type : Progressive
Bits/(Pixel*Frame) : 0.191
Stream size : 528 MiB (69%)
Writing library : x264 core 107 r1745 4785e8e
Encoding settings : cabac=1 / ref=12 / deblock=1:-2:-1 / analyse=0x3:0x133 / me=tesa / subme=10 / psy=1 / psy_rd=1.00:0.10 / mixed_ref=1 / me_range=24 / chroma_me=1 / trellis=2 / 8x8dct=1 / cqm=0 / deadzone=21,11 / fast_pskip=0 / chroma_qp_offset=-3 / threads=6 / sliced_threads=0 / nr=0 / decimate=1 / interlaced=0 / constrained_intra=0 / bframes=6 / b_pyramid=2 / b_adapt=2 / b_bias=0 / direct=3 / weightb=1 / open_gop=0 / weightp=2 / keyint=240 / keyint_min=24 / scenecut=40 / intra_refresh=0 / rc=2pass / mbtree=0 / bitrate=1551 / ratetol=1.0 / qcomp=0.70 / qpmin=10 / qpmax=51 / qpstep=4 / cplxblur=20.0 / qblur=0.5 / ip_ratio=1.30 / pb_ratio=1.20 / aq=1:1.00
Language : English
Default : Yes
Forced : No
Audio #1
ID : 2
Format : AC-3
Format/Info : Audio Coding 3
Mode extension : CM (complete main)
Format settings, Endianness : Big
Codec ID : A_AC3
Duration : 48mn 50s
Bit rate mode : Constant
Bit rate : 192 Kbps
Channel count : 2 channels
Channel positions : Front: L R
Sampling rate : 48.0 KHz
Bit depth : 16 bits
Compression mode : Lossy
Stream size : 67.1 MiB (9%)
Language : Russian
Default : Yes
Forced : No
Audio #2
ID : 3
Format : AC-3
Format/Info : Audio Coding 3
Mode extension : CM (complete main)
Format settings, Endianness : Big
Codec ID : A_AC3
Duration : 48mn 50s
Bit rate mode : Constant
Bit rate : 448 Kbps
Channel count : 6 channels
Channel positions : Front: L C R, Side: L R, LFE
Sampling rate : 48.0 KHz
Bit depth : 16 bits
Compression mode : Lossy
Stream size : 156 MiB (20%)
Language : English
Default : No
Forced : No
Text
ID : 4
Format : UTF-8
Codec ID : S_TEXT/UTF8
Codec ID/Info : UTF-8 Plain Text
Language : English
Default : No
Forced : No
Menu
00:00:00.000 : en:Prophecy
00:06:42.335 : en:Highland Child
00:16:24.751 : en:The Prophecy
00:18:59.773 : en:Missing Sons
00:26:06.166 : en:Signs
00:34:56.829 : en:The Child & The Man
00:42:26.779 : en:Good Always Triumphs
00:44:35.941 : en:Quickening

Горец 6

--Горец / Highlander-- Сезон/Серия: Сезон:6 /Серия 1-13 из 13
Продолжительность: 13 х 00:48:51
Субтитры: English--Описание: Он — Дункан Маклауд… Горец. Он родился в 1592 в горах Шотландии, но он жив до сих пор. Он бессмертный. Четыреста лет он был воином… любовником… путешественником, веками он сражается с другими Бессмертными. Победителю достаётся голова врага и его сила. Я — Наблюдатель, член тайного общества мужчин и женщин, мы следим и ведём хроники, но никогда не вмешиваемся. Мы знаем правду о Бессмертных. В конце останется только один. И пусть это будет Дункан Маклауд… Горец.
6 сезон Горца, ставший последним в сериале, насчитывает всего 13 эпизодов. Но это не значит, что здесь нечего посмотреть и не о чем подумать. Хотя некоторые мысли сценаристов и повороты сюжетной линии были восприняты поклонниками неоднозначно, все же окончание истории о Дункане Маклауде далеко не так неудачно, как может показаться. И окончание ли это вообще? Вряд ли…--Качество:DVDRip-AVC
Формат: mkv
Видео кодек: AVC
Аудио кодек: AC-3
Видео: 704x480 (4:3), 23.976 fps, ~1 847 kbps avg, 0.227 bit/pixel
Аудио: 2 channels, 48 kHz, ~192.00 kbps avg /Russian/
Аудио: 6 channels, 48 kHz, ~448.00 kbps avg /English/--

Список серий

6x01 Аватар Avatar
Горец возвращается из монастыря, где он набирался сил перед началом новых битв на пороге тысячелетия. Его посещает зороастрийский демон Ахриман, который приходит раз в тысячу лет, чтобы нанести ущерб Земле. Он уже насылал безумие на Дункана и заставил его убить Ричи. Но теперь Маклауд едет в Париж, чтобы уничтожить Ахримана.
6x02 Армагеддон Armageddon
Маклауд отправляется к своему духовному наставнику отцу Роберту Бофору. Священник скорбит о своем брате Джеке, покончившим жизнь самоубийством. Вместе им предстоит преодолеть череду соблазнов, чтобы укрепиться в вере. С помощью отца Бофора и Джо Доусона Маклауд, наконец, начинает находить путь к уязвимости Ахримана.
6x03 Грехи отцов Sins if the Father
Когда друг Дункана погибает в автокатастрофе, Горец пытается разыскать убийцу и сталкивается с бессмертной Алексой Рэвен.
6x04 Дипломатическая неприкосновенность Diplomatic Immunity
Аферист и мошенник, бессмертный Вилли Кингсли ловко инсценирует свою смерть и получает с этого деньги. Но в этот раз дела пошли не так, как надо, из-за чего умирает его смертная жена. Вилли обращается к Дункану за помощью, чтобы разыскать убийцу. Маклауд хочет правосудия... Вилли хочет мести.
6x05 Пациент № 7 Patient Number 7
Полиция наступает ей на пятки, убийцы преследуют её, Кира находится в бегах, не помня ни кто они, ни кто она. На улицах Парижа она сталкивается с Дунканом Маклаудом, который рассказывает ей невероятную историю о том, что триста лет назад он и Кира были любовниками, что она - солдат, воин. И она бессмертна. Кира не верит его словам, но если это неправда, то почему кто-то охотится за её головой?
6x06 Чёрная башня Black Tower
Четыреста лет назад Девон Марек был испорченным аристократом со страстью к охоте. Его первый учитель, Дункан Маклауд, вынудил его бросить свои земли и имя, когда тот стал бессмертным. Марек так и не простил его за это. Ослепленный жаждой мести, Марек заключает Горца в пустынном высотном здании с бригадой наемных убийц.
6x07 Необычные подозреваемые Unusual Suspects
На дворе 1929 год, и Хью Фицкэрн наслаждается жизнью английского лорда в своем поместье. У него есть хорошие друзья, красивая жена, верные слуги. Так продолжается, пока один из них не "убивает" его. Теперь, с помощью своего старого друга Дункана Маклауда Фитц решает раскрыть личность собственного убийцы.
6x08 Правосудие Justice
Приемная дочь бессмертной Кати убита, но суд позволяет убийце - её мужу - свободно гулять на воле. Теперь Катя - ангел мести, жаждущий правосудия... Горец должен убедить её, что правосудие и месть - разные вещи
6x09 Смертельное разоблачение Deadly Exposure
Бессмертная Рейган Коул большую часть своей жизни работала охотником за головами преступников за вознаграждение. В прошлом она получила деньги за поимку Горца, но тогда она же его и выручила. Теперь Рейган приехала в отпуск в Париж...
6x10 Два сердца Two of Hearts
Несколько веков назад Бартоломью посылал тысячи людей на смерть в Крестовых походах, накапливая себе состояние во имя Бога. Теперь Кэтрин хочет забрать его голову - если только сможет удержать своего смертного мужа Ника от вмешательства в игру бессмертных
6x11 Неосмотрительность Indiscretions
Митос и Джо Доусон объединяют силы, когда неосмотрительность, которую они проявили ранее, стала угрожать жизни их самих и их близких. Морган Уолкер был врагом Митоса в течение двухсот лет, и сейчас получил шанс отомстить, похитив дочь Джо.
6x12 Быть или не быть To Be
Лондон, 1946 год. Ирландский террорист, бессмертный Лайам О'Рурк, и его смертная возлюбленная Тара взрывают паб. Погибают невинные. Маклауд помогает властям арестовать террористов. Обоих приговаривают к пожизненному заключению, и О'Рурк остается в тюрьме до дня смерти Тары. В наше время они встречаются в Каире.
6x13 Быть или не быть Not To Be
Фитц показывает Маклауду мир, в котором никогда не было Горца. В этом мире живут Тесса и её двое детей. А Митос поддался своей темной стороне, и воссоединился с Кроносом. Сам Фитц считается там мертвым уже 280 лет... Мак видит, что среди многих потерь в "его мире", в отличие от этого, было и много хорошего - того, что он сделал для своих друзей и любимых, то добро, которое творил. Он принимает решение вернуться.

MediaInfo

General
Unique ID : 180357750752882726334221337397428667117 (0x87AFA3A85C57D2668C8B14D22576C2ED)
Complete name : E:\Сериалы новые\Highlander DVDRip-AVC\Season 6\Highlander.s06e01.x264.ac3.rus.eng Avatar.mkv
Format : Matroska
Format version : Version 2
File size : 866 MiB
Duration : 48mn 51s
Overall bit rate : 2 479 Kbps
Encoded date : UTC 2012-02-04 04:38:55
Writing application : mkvmerge v5.2.0 ('I can't explain') built on Dec 18 2011 18:12:03
Writing library : libebml v1.2.3 + libmatroska v1.3.0
Attachment : Encode log
Video
ID : 1
Format : AVC
Format/Info : Advanced Video Codec
Format profile : High@L3.1
Format settings, CABAC : Yes
Format settings, ReFrames : 12 frames
Codec ID : V_MPEG4/ISO/AVC
Duration : 48mn 51s
Bit rate : 1 836 Kbps
Width : 704 pixels
Height : 480 pixels
Display aspect ratio : 4:3
Frame rate mode : Constant
Frame rate : 23.976 fps
Original frame rate : 24.094 fps
Standard : NTSC
Color space : YUV
Chroma subsampling : 4:2:0
Bit depth : 8 bits
Scan type : Progressive
Bits/(Pixel*Frame) : 0.227
Stream size : 625 MiB (72%)
Writing library : x264 core 107 r1745 4785e8e
Encoding settings : cabac=1 / ref=12 / deblock=1:-2:-1 / analyse=0x3:0x133 / me=tesa / subme=10 / psy=1 / psy_rd=1.00:0.10 / mixed_ref=1 / me_range=24 / chroma_me=1 / trellis=2 / 8x8dct=1 / cqm=0 / deadzone=21,11 / fast_pskip=0 / chroma_qp_offset=-3 / threads=6 / sliced_threads=0 / nr=0 / decimate=1 / interlaced=0 / constrained_intra=0 / bframes=6 / b_pyramid=2 / b_adapt=2 / b_bias=0 / direct=3 / weightb=1 / open_gop=0 / weightp=2 / keyint=240 / keyint_min=24 / scenecut=40 / intra_refresh=0 / rc=2pass / mbtree=0 / bitrate=1836 / ratetol=1.0 / qcomp=0.70 / qpmin=10 / qpmax=51 / qpstep=4 / cplxblur=20.0 / qblur=0.5 / ip_ratio=1.30 / pb_ratio=1.20 / aq=1:1.00
Language : English
Default : Yes
Forced : No
Audio #1
ID : 2
Format : AC-3
Format/Info : Audio Coding 3
Mode extension : CM (complete main)
Format settings, Endianness : Big
Codec ID : A_AC3
Duration : 48mn 51s
Bit rate mode : Constant
Bit rate : 192 Kbps
Channel count : 2 channels
Channel positions : Front: L R
Sampling rate : 48.0 KHz
Bit depth : 16 bits
Compression mode : Lossy
Stream size : 67.1 MiB (8%)
Language : Russian
Default : Yes
Forced : No
Audio #2
ID : 3
Format : AC-3
Format/Info : Audio Coding 3
Mode extension : CM (complete main)
Format settings, Endianness : Big
Codec ID : A_AC3
Duration : 48mn 51s
Bit rate mode : Constant
Bit rate : 448 Kbps
Channel count : 6 channels
Channel positions : Front: L C R, Side: L R, LFE
Sampling rate : 48.0 KHz
Bit depth : 16 bits
Compression mode : Lossy
Stream size : 157 MiB (18%)
Language : English
Default : No
Forced : No
Text
ID : 4
Format : UTF-8
Codec ID : S_TEXT/UTF8
Codec ID/Info : UTF-8 Plain Text
Language : English
Default : No
Forced : No
Menu
00:00:00.000 : en:Avatar
00:05:31.531 : en:Friend
00:13:18.931 : en:Warm Welcome
00:18:22.301 : en:Watery Rescue
00:24:55.060 : en:Paying A Call
00:31:34.326 : en:Hello, You're Dead
00:37:46.197 : en:Tempting Gifts

_________________
[Торрент-статистика]
[Профиль]  [ЛС] 

Viktor1122

Пол:

Стаж: 2 года 10 месяцев

Сообщений: 1

Репутация: 0 [+] [-]

Откуда: Россия

Пост 02-Сен-2016 13:06 (спустя 2 года 7 месяцев)

[Цитировать] 

Спасибо за сериал! Вспомню молодость!
[Торрент-статистика]
[Профиль]  [ЛС] 
Показать сообщения:    
Ответить на тему

Текущее время: Сегодня 04:20

Часовой пояс: GMT + 4



Вы не можете начинать темы
Вы не можете отвечать на сообщения
Вы не можете редактировать свои сообщения
Вы не можете удалять свои сообщения
Вы не можете голосовать в опросах
Вы не можете прикреплять файлы к сообщениям
Вы не можете скачивать файлы