Охотник / Le Chasseur / Сезон: 1 / Серии: 1-6 (6) (Джерард Керри, Васили Клерт, Николас Куч) [2010 г, драма, SATRip] MVO компания "Игмар"+ Original

Ответить на тему
 
Автор
Сообщение

awk05 ®

Пол:

Стаж: 4 года 5 месяцев

Сообщений: 1352

Репутация: 275 [+] [-]

Откуда: Западная Украина Ривне

Пост 05-Янв-2014 17:22

[Цитировать] 

--Охотник / Le Chasseur-- Год выпуска: 2010
Страна: Франция
Жанр: драма
Сезон/Серия: Сезон:1 /Серия 1-6 из 6
Продолжительность: 6 х ~ 00:45:00 минут
Перевод: Профессиональный (многоголосый, закадровый) /компания "Игмар"/+ Original
Субтитры: отсутствуют--Режиссер: Джерард Керри, Васили Клерт, Николас Куч--В ролях: Янник Соулер, Мари-Франс Пизье, Ванесса Ларре, Эстелл Скорник, Жан-Франсуа Стевенен, Зельда Риттнер, Оливье Рабурден, Доминик Дельгусте, Антуан Леваннье, Филипп Рейно--Описание:Главный герой сериала – Самюэль Делонэ. Он работает со своей матерью (адвокатом) и помогает ее клиентам решить возникающие проблемы самым радикальным способом, не доводя дело до суда. Самюэль всегда успешно справлялся со своей работой. Но однажды все переворачивается с ног на голову. Он получает новое задание. Самюэль должен устранить очередного человека. Что ж. Ему не привыкать. Но на этот раз не все так просто. Самюэль с ужасом узнает, что жертвой должна стать его жена Лорен. Самюэль не смог переступить через себя и убить супругу. Лорен осталась жива, и им с Самюэлем пришлось столкнуться с большими неприятностями. Сериал считается французским вариантом нашумевшего Декстера. Чтобы не возник скандал, премьера сериала состоялась глубокой ночью. За две ночи были показаны все серии. Однако, как и следовало ожидать, высоких рейтингов продукт не имел, поэтому съемки второго сезона канал не стал заказывать.--Качество: SATRip
Формат: AVI
Видео кодек: XviD
Аудио кодек: MP3
Видео: 720x360 (2.00:1), 25.000 fps, ~694 kbps avg, 0.107 bit/pixel
Аудио RUS: 2 channels, 48 kHz, ~192.00 kbps avg
Аудио FR: 2 channels, 32 kHz, ~ 96.00 kbps avg-- kinopoisk.ru--

MI

General
Complete name : E:\Сериалы новые\Le Chasseur (French TV Series)\Le.Chasseur.s01e01.Le.Coiffeur.Rus.Fr.DVBRip.avi
Format : AVI
Format/Info : Audio Video Interleave
File size : 317 MiB
Duration : 44mn 31s
Overall bit rate : 996 Kbps
Writing application : VirtualDubMod 1.5.10.2 (build 2540/release)
Writing library : VirtualDubMod build 2540/release
Video
ID : 0
Format : MPEG-4 Visual
Format profile : Advanced Simple@L5
Format settings, BVOP : 2
Format settings, QPel : No
Format settings, GMC : No warppoints
Format settings, Matrix : Default (H.263)
Codec ID : XVID
Codec ID/Hint : XviD
Duration : 44mn 31s
Bit rate : 694 Kbps
Width : 720 pixels
Height : 360 pixels
Display aspect ratio : 2.000
Frame rate : 25.000 fps
Color space : YUV
Chroma subsampling : 4:2:0
Bit depth : 8 bits
Scan type : Progressive
Compression mode : Lossy
Bits/(Pixel*Frame) : 0.107
Stream size : 221 MiB (70%)
Writing library : XviD 1.1.2 (UTC 2006-11-01)
Audio #1
ID : 1
Format : MPEG Audio
Format version : Version 1
Format profile : Layer 3
Mode : Joint stereo
Codec ID : 55
Codec ID/Hint : MP3
Duration : 44mn 31s
Bit rate mode : Constant
Bit rate : 192 Kbps
Channel count : 2 channels
Sampling rate : 48.0 KHz
Compression mode : Lossy
Stream size : 61.1 MiB (19%)
Alignment : Aligned on interleaves
Interleave, duration : 40 ms (1.00 video frame)
Interleave, preload duration : 504 ms
Audio #2
ID : 2
Format : MPEG Audio
Format version : Version 1
Format profile : Layer 3
Mode : Joint stereo
Mode extension : Intensity Stereo + MS Stereo
Codec ID : 55
Codec ID/Hint : MP3
Duration : 44mn 31s
Bit rate mode : Constant
Bit rate : 96.0 Kbps
Channel count : 2 channels
Sampling rate : 32.0 KHz
Compression mode : Lossy
Stream size : 30.6 MiB (10%)
Alignment : Aligned on interleaves
Interleave, duration : 40 ms (1.00 video frame)
Interleave, preload duration : 504 ms

_________________
[Торрент-статистика]
[Профиль]  [ЛС] 
Показать сообщения:    
Ответить на тему

Текущее время: Сегодня 20:35

Часовой пояс: GMT + 4



Вы не можете начинать темы
Вы не можете отвечать на сообщения
Вы не можете редактировать свои сообщения
Вы не можете удалять свои сообщения
Вы не можете голосовать в опросах
Вы не можете прикреплять файлы к сообщениям
Вы не можете скачивать файлы