Новый Амстердам (Бессмертный) / New Amsterdam / Сезон: 1 / Серии: 1-8 (8) (Джон Дэвид Коулз, Жан Де Сегонзак, Кен Джиротти) [2008 г., детектив, мистика, драма, HDTVRip] (TB3 + 1001cinema + ICTV + Eng)

Ответить на тему
 
Автор
Сообщение

awk05 ®

Пол:

Стаж: 4 года 5 месяцев

Сообщений: 1352

Репутация: 275 [+] [-]

Откуда: Западная Украина Ривне

Пост 05-Янв-2014 02:31

[Цитировать] 

--Новый Амстердам (Бессмертный) / New Amsterdam«Live like there's always tomorrow»-- Страна: США
Год выпуска: 2008
Жанр: детектив, мистика, драма
Сезон/Серия: Сезон:1 /Серия 1-8 из 8
Продолжительность: 8 х ~00:43:00 мин
Перевод: Профессиональный закадровый (многоголосный) + Любительский(двухголосный)
Озвучка / Автор перевода: (TB3), (ICTV), (1001cinema)
Субтитры: отсутствуют--Режиссер: Джон Дэвид Коулз, Жан Де Сегонзак, Кен Джиротти--В ролях: Николай Костер-Вальдау, Зулейха Робинсон, Алекси Гилмор, Стефен Хендерсон, Джиан, Роберт Клохесси, Джэми Харольд, Сьюзэн Миснер, Тимоти Дэвлин, Гарри Л. Седдон--Описание: Нью-Йоркский детектив Джон Амстердам обладает бессмертием после того, как в 1642 году спас девушку из индейского племени, приняв на себя удар меча. В благодарность, девочка излечила Джона от смертельной раны, сделав его бессмертным, однако предупредила, что заклятие будет действовать до того момента, пока он не встретит свою настоящую любовь. За 400 лет своей жизни он потерял много людей, любимые и дети умирали, пока он оставался молодым. Джон замкнулся, благословение превратилось в проклятье.
В наши дни Джон работает в убойном отделе, и единственный человек, знающий его секрет — владелец джаз-клуба Омар. Однажды вместе с напарницей Евой Маркез он преследует подозреваемого и внезапно испытывает нечто, похожее на сердечный приступ, однако его возвращает к жизни доктор Сара Диллэйн. Так, Джон понимает, что его любовь, как и конец заклятия ближе, чем ему казалось…--Качество видео: HDTVRip
Формат видео: AVI
Видео кодек: MPEG4, XviD
Аудио кодек: MP3
Видео: MPEG4, XviD, 624x352 (16:9), 23.976 fps, 946 Kbps (0.180 bit/pixel)
Аудио 1: MP3 , 48.0 KHz, 2 ch, 128 Kbps, CBR, 16 bits [Русский]
Аудио 2: MP3 , 48.0 KHz, 2 ch, 192 Kbps, CBR, 16 bits [Русский]
Аудио 3: MP3 , 48.0 KHz, 2 ch, 128 Kbps, CBR, 16 bits [Украинский]
Аудио 4: MP3 , 48.0 KHz, 2 ch, 128 Kbps, VBR, 16 bits [Английский] -- --

Список серий

  • Пилот(Pilot)
  • Золотой мальчик(Golden Boy)
  • Сердце солдата(Soldier's Heart)
  • Честь(Honor)
  • Тайны прошлого(Keep the Change)
  • Наследие(Legacy)
  • Старый напарник(Reclassified)
  • Любовь причиняет боль(Love Hurts)

Кадры из фильма



Тех. данные (MI)

Код:
General
Complete name                            : E:\Сериалы новые\New Amsterdam Season 1\new.amsterdam.s01e01.hdtvrip.2rus.ukr.eng.1001cinema.tv.avi
Format                                   : AVI
Format/Info                              : Audio Video Interleave
File size                                : 493 MiB
Duration                                 : 43mn 6s
Overall bit rate mode                    : Variable
Overall bit rate                         : 1 600 Kbps
Writing application                      : VirtualDubMod 1.6.0.0 SURROUND (build 2560/release)
Writing library                          : VirtualDubMod build 2560/release
Video
ID                                       : 0
Format                                   : MPEG-4 Visual
Format profile                           : Advanced Simple@L5
Format settings, BVOP                    : 2
Format settings, QPel                    : No
Format settings, GMC                     : No warppoints
Format settings, Matrix                  : Default (H.263)
Muxing mode                              : Packed bitstream
Codec ID                                 : XVID
Codec ID/Hint                            : XviD
Duration                                 : 43mn 6s
Bit rate                                 : 946 Kbps
Width                                    : 624 pixels
Height                                   : 352 pixels
Display aspect ratio                     : 16:9
Frame rate                               : 23.976 fps
Color space                              : YUV
Chroma subsampling                       : 4:2:0
Bit depth                                : 8 bits
Scan type                                : Progressive
Compression mode                         : Lossy
Bits/(Pixel*Frame)                       : 0.180
Stream size                              : 292 MiB (59%)
Writing library                          : XviD 1.2.0.dev47 (UTC 2006-11-01)
Audio #1
ID                                       : 1
Format                                   : MPEG Audio
Format version                           : Version 1
Format profile                           : Layer 3
Mode                                     : Joint stereo
Mode extension                           : MS Stereo
Codec ID                                 : 55
Codec ID/Hint                            : MP3
Duration                                 : 43mn 6s
Bit rate mode                            : Constant
Bit rate                                 : 128 Kbps
Channel count                            : 2 channels
Sampling rate                            : 48.0 KHz
Compression mode                         : Lossy
Stream size                              : 39.5 MiB (8%)
Alignment                                : Aligned on interleaves
Audio #2
ID                                       : 2
Format                                   : MPEG Audio
Format version                           : Version 1
Format profile                           : Layer 3
Mode                                     : Joint stereo
Codec ID                                 : 55
Codec ID/Hint                            : MP3
Duration                                 : 43mn 6s
Bit rate mode                            : Constant
Bit rate                                 : 192 Kbps
Channel count                            : 2 channels
Sampling rate                            : 48.0 KHz
Compression mode                         : Lossy
Stream size                              : 59.2 MiB (12%)
Alignment                                : Aligned on interleaves
Audio #3
ID                                       : 3
Format                                   : MPEG Audio
Format version                           : Version 1
Format profile                           : Layer 3
Mode                                     : Joint stereo
Mode extension                           : MS Stereo
Codec ID                                 : 55
Codec ID/Hint                            : MP3
Duration                                 : 43mn 6s
Bit rate mode                            : Constant
Bit rate                                 : 128 Kbps
Channel count                            : 2 channels
Sampling rate                            : 48.0 KHz
Compression mode                         : Lossy
Stream size                              : 39.5 MiB (8%)
Alignment                                : Aligned on interleaves
Audio #4
ID                                       : 4
Format                                   : MPEG Audio
Format version                           : Version 1
Format profile                           : Layer 3
Mode                                     : Joint stereo
Mode extension                           : MS Stereo
Codec ID                                 : 55
Codec ID/Hint                            : MP3
Duration                                 : 43mn 6s
Bit rate mode                            : Variable
Bit rate                                 : 128 Kbps
Channel count                            : 2 channels
Sampling rate                            : 48.0 KHz
Compression mode                         : Lossy
Stream size                              : 39.5 MiB (8%)
Alignment                                : Aligned on interleaves

_________________
[Торрент-статистика]
[Профиль]  [ЛС] 
Показать сообщения:    
Ответить на тему

Текущее время: Сегодня 06:26

Часовой пояс: GMT + 4



Вы не можете начинать темы
Вы не можете отвечать на сообщения
Вы не можете редактировать свои сообщения
Вы не можете удалять свои сообщения
Вы не можете голосовать в опросах
Вы не можете прикреплять файлы к сообщениям
Вы не можете скачивать файлы