Американцы / The Americans / Сезон: 1 / Серии: 1-13 из 13 (Адам Аркин, Гэвин О’Коннор, Томас Шламми) [2013 г., Боевик, триллер, драма, криминал , WEB-DLRip] [NewStudio]

Ответить на тему
 
Автор
Сообщение

awk05 ®

Пол:

Стаж: 4 года 5 месяцев

Сообщений: 1352

Репутация: 275 [+] [-]

Откуда: Западная Украина Ривне

Пост 03-Янв-2014 04:47

[Цитировать] 

-- Американцы / The Americans -- Год выпуска: 2013
Страна: США, FX
Жанр: Боевик, триллер, драма, криминал
Сезон/Серия: Сезон: 1 Серии: 1-13 из 13
Перевод: профессиональный (многоголосый закадровый) NewStudio.TV + Original
Продолжительность: 13 х ~ 00:42:26
Субтитры: нет--Режиссёр: Адам Аркин, Гэвин О’Коннор, Томас Шламми--В ролях: Аннет Махендру, Холли Тейлор, Роман Блат, Пол Джуд Летерски, Мэттью Риз, Кери Рассел, Марми Косико--Описание: История о сложном браке двух агентов КГБ, которые под видом американцев заселяются в пригород Вашингтона сразу после того, как президентом избирают Рейгана. Подставной брак Филлипа и Элизабет с каждым днем становится все более настоящим и эмоциональным, несмотря на эскалацию холодной войны и опасные отношения, которые они должны поддерживать с сетью шпионов и информаторов. Напряжение нарастает, когда появляется новый сосед Стэн, агент ФБР, который работает в контрразведке.--Качество: WEB-DLRip
Формат: AVI
Видео кодек:: XviD
Аудио кодек:: MP3
Видео: 720х400 , 16:9 , 23.976 fps , ~1 458 kbps avg , 0.211 bit/pixel
Аудио 1: 2 channels , 48 kHz , 192 kbps avg |NewStudio.TV|
Аудио 2: 2 channels , 48 kHz , 192 kbps avg |English|-- --

MediaInfo

"General
Complete name : E:\Сериалы новые\The.Americans.s01.WEBDLRip.NewStudio.TV\The.Americans.s01e01.WEBDLRip.NewStudio.TV.avi
Format : AVI
Format/Info : Audio Video Interleave
File size : 959 MiB
Duration : 1h 9mn
Overall bit rate : 1 929 Kbps
Writing application : VirtualDubMod 1.5.10.2 (build 2540/release)
Writing library : VirtualDubMod build 2540/release
Video
ID : 0
Format : MPEG-4 Visual
Format profile : Advanced Simple@L5
Format settings, BVOP : 2
Format settings, QPel : No
Format settings, GMC : No warppoints
Format settings, Matrix : Default (MPEG)
Codec ID : XVID
Codec ID/Hint : XviD
Duration : 1h 9mn
Bit rate : 1 458 Kbps
Width : 720 pixels
Height : 400 pixels
Display aspect ratio : 16:9
Frame rate : 23.976 fps
Color space : YUV
Chroma subsampling : 4:2:0
Bit depth : 8 bits
Scan type : Progressive
Compression mode : Lossy
Bits/(Pixel*Frame) : 0.211
Stream size : 725 MiB (76%)
Writing library : XviD 65
Audio #1
ID : 1
Format : MPEG Audio
Format version : Version 1
Format profile : Layer 3
Codec ID : 55
Codec ID/Hint : MP3
Duration : 1h 9mn
Bit rate mode : Constant
Bit rate : 192 Kbps
Channel count : 2 channels
Sampling rate : 48.0 KHz
Compression mode : Lossy
Stream size : 95.5 MiB (10%)
Alignment : Aligned on interleaves
Audio #2
ID : 2
Format : MPEG Audio
Format version : Version 1
Format profile : Layer 3
Mode : Joint stereo
Codec ID : 55
Codec ID/Hint : MP3
Duration : 1h 9mn
Bit rate mode : Constant
Bit rate : 192 Kbps
Channel count : 2 channels
Sampling rate : 48.0 KHz
Compression mode : Lossy
Stream size : 95.5 MiB (10%)
Alignment : Aligned on interleaves
Writing library : LAME3.99r
Encoding settings : -m j -V 4 -q 2 -lowpass 18.6 -b 192

Список серий

1. Пилот / Pilot
2. Часы / The Clock
3. Грегори / Gregory
4. Под контролем / In Control
5. Радиоразведка / Comint
6. Доверся мне / Trust Me
7. Долг и честь / Duty and Honor
8. Взаимно гарантированное уничтожение / Mutually Assured Destruction
9. Конспиративная явка / Safe House
10. Только ты / Only You
11. Тайная война / Covert War
12. Клятва / The Oath
13. Полковник / The Colonel
"

Скриншоты




_________________
[Торрент-статистика]
[Профиль]  [ЛС] 
Показать сообщения:    
Ответить на тему

Текущее время: Сегодня 09:02

Часовой пояс: GMT + 4



Вы не можете начинать темы
Вы не можете отвечать на сообщения
Вы не можете редактировать свои сообщения
Вы не можете удалять свои сообщения
Вы не можете голосовать в опросах
Вы не можете прикреплять файлы к сообщениям
Вы не можете скачивать файлы