Ангелы Чарли / Charlie's Angels / Сезон: 1 / Серия 1-8 из 8 (Маркос Сига) [2011 г., боевик, криминал, драма , WEB-DLRip] (SET Россия) + Original

Ответить на тему
 
Автор
Сообщение

awk05 ®

Пол:

Стаж: 4 года 5 месяцев

Сообщений: 1352

Репутация: 275 [+] [-]

Откуда: Западная Украина Ривне

Пост 02-Янв-2014 23:24

[Цитировать] 

-- Ангелы Чарли / Charlie's Angels -- Год выпуска: 2011
Страна: США
Жанр: боевик, криминал, драма
Сезон/Серия: Сезон: 1 Серия 1-8 из 8
Перевод: Профессиональный многоголосый закадровый (SET Россия) + Original
Продолжительность: 8 х ~ 00:43:08
Субтитры: нет--Режиссёр: Маркос Сига--В ролях: Рэйчел Тейлор, Минка Келли, Кристофер Де Стефано, Карлос Бернард, Чаз Мена, Тейлор Блэкуелл, Джефф Чейз, Терра МакКланг и др.--Описание: "Благодаря загадочному миллионеру Чарли Таунсенду трем красивым девушкам удается покончить со своим непростым прошлым. Под бдительным руководством агента Босли, Кейт, Ив и Эбби начинают работать на престижное детективное агентство Таунсенд. Они расследуют самые запутанные дела как в опасных притонах для наркоманов, так и в роскошных особняках Майами.
"--Качество: WEB-DLRip
Формат: AVI
Видео кодек:: XviD
Аудио кодек:: AC3
Видео: 720х400 , 16:9 , 23.976 fps , ~1 994 kbps avg , 0.289 bit/pixel
Аудио 1: 2 channels , 48 kHz , 192 kbps avg |SET Россия|
Аудио 2: 2 channels , 48 kHz , 192 kbps avg |English|--

MediaInfo

"General
Complete name : E:\Сериалы новые\Charlie`s Angels Season 1\Charlie`s.Angels.s01e01.rus.eng.avi
Format : AVI
Format/Info : Audio Video Interleave
File size : 738 MiB
Duration : 43mn 8s
Overall bit rate : 2 392 Kbps
Writing application : VirtualDubMod 1.5.10.2 (build 2540/release)
Writing library : VirtualDubMod build 2540/release
Video
ID : 0
Format : MPEG-4 Visual
Format profile : Advanced Simple@L5
Format settings, BVOP : 1
Format settings, QPel : No
Format settings, GMC : No warppoints
Format settings, Matrix : Default (MPEG)
Codec ID : XVID
Codec ID/Hint : XviD
Duration : 43mn 8s
Bit rate : 1 994 Kbps
Width : 720 pixels
Height : 400 pixels
Display aspect ratio : 16:9
Frame rate : 23.976 fps
Color space : YUV
Chroma subsampling : 4:2:0
Bit depth : 8 bits
Scan type : Progressive
Compression mode : Lossy
Bits/(Pixel*Frame) : 0.289
Stream size : 615 MiB (83%)
Writing library : XviD 65
Audio #1
ID : 1
Format : AC-3
Format/Info : Audio Coding 3
Mode extension : CM (complete main)
Format settings, Endianness : Big
Codec ID : 2000
Duration : 43mn 8s
Bit rate mode : Constant
Bit rate : 192 Kbps
Channel count : 2 channels
Channel positions : Front: L R
Sampling rate : 48.0 KHz
Bit depth : 16 bits
Compression mode : Lossy
Stream size : 59.2 MiB (8%)
Alignment : Split accross interleaves
Interleave, duration : 42 ms (1.00 video frame)
Interleave, preload duration : 500 ms
Audio #2
ID : 2
Format : AC-3
Format/Info : Audio Coding 3
Mode extension : CM (complete main)
Format settings, Endianness : Big
Codec ID : 2000
Duration : 43mn 8s
Bit rate mode : Constant
Bit rate : 192 Kbps
Channel count : 2 channels
Channel positions : Front: L R
Sampling rate : 48.0 KHz
Bit depth : 16 bits
Compression mode : Lossy
Stream size : 59.2 MiB (8%)
Alignment : Split accross interleaves
Interleave, duration : 42 ms (1.00 video frame)
Interleave, preload duration : 500 ms
"

Список серий

1.Angel with a Broken Wing
2.Runway Angels
3.Bon Voyage, Angels
4.Angels in Chains
5.Angels in Paradise
6.Black Hat Angels
7.Royal Angels
8.They Are Not Saints

_________________
[Торрент-статистика]
[Профиль]  [ЛС] 
Показать сообщения:    
Ответить на тему

Текущее время: Сегодня 10:56

Часовой пояс: GMT + 4



Вы не можете начинать темы
Вы не можете отвечать на сообщения
Вы не можете редактировать свои сообщения
Вы не можете удалять свои сообщения
Вы не можете голосовать в опросах
Вы не можете прикреплять файлы к сообщениям
Вы не можете скачивать файлы