Задиры / Vexed / Сезон: 2 / Серия 1-6 из 6 (Мэтт Липси) [2011 г., драма, комедия, криминал , HDTVRip] [Первый канал]

Ответить на тему
 
Автор
Сообщение

awk05 ®

Пол:

Стаж: 4 года 5 месяцев

Сообщений: 1352

Репутация: 275 [+] [-]

Откуда: Западная Украина Ривне

Пост 02-Янв-2014 16:11

[Цитировать] 

-- Задиры / Vexed -- Год выпуска: 2011
Страна: Великобритания
Жанр: драма, комедия, криминал
Сезон/Серия: Сезон: 2 Серия 1-6 из 6
Перевод: Профессиональный (многоголосый, закадровый) - Первый канал
Продолжительность: 6 х ~ 00:57:31
Субтитры: нет--Режиссёр: Мэтт Липси--В ролях: Тоби Стивенс, Ронни Джатти, Роджер Гриффитс, Миранда Рэйсон, Люси Панч, Рори Киннер, Ник Даннинг, Сэм О’Махони-Адамс, Филип Дехэни, Кэтрин Бёрфорд и др.--Описание: Принципиально новый сериал, блестящий, динамичный, в жанре комедийной драмы, вращается вокруг Кейт и Джека, детективного дуэта с интересными взаимоотношениями.
Яркие, сексуальные и забавные моменты их личной жизни переплетены со случаями их расследований. Несмотря на то, что в первую очередь они - представители закона, детективов так же часто, как и всех прочих людей, постигает разочарование, обеспокоенность и неуверенность. Они всегда в пути, или в их неофициальном офисе - местном кафе напротив полицейского участка, где кофе и сплетни гораздо лучше. Их расследования могут многое рассказать о современной жизни в новой и занимательной форме."--Качество: HDTVRip
Формат: AVI
Видео кодек:: XviD
Аудио кодек:: AC3
Видео: 720х400 , 16:9 , 25.000 fps , ~1304 kbps avg , 0.181 bit/pixel
Аудио 1: 2 channels , 48 kHz , 192 kbps avg |Первый канал|
Аудио 2: 2 channels , 48 kHz , 192 kbps avg English--

MediaInfo

"General
Complete name : I:\ЗАКАЧКИ\Задиры. Сезон 2 (Первый канал)\vexed.s02e01.hdtvrip.rus.eng.to4ka.tv.avi
Format : AVI
Format/Info : Audio Video Interleave
File size : 701 MiB
Duration : 57mn 31s
Overall bit rate : 1 703 Kbps
Writing application : VirtualDubMod 1.6.0.0 SURROUND (build 2560/release)
Writing library : VirtualDubMod build 2560/release
Video
ID : 0
Format : MPEG-4 Visual
Format profile : Advanced Simple@L5
Format settings, BVOP : 1
Format settings, QPel : No
Format settings, GMC : No warppoints
Format settings, Matrix : Default (MPEG)
Codec ID : XVID
Codec ID/Hint : XviD
Duration : 57mn 31s
Bit rate : 1 304 Kbps
Width : 720 pixels
Height : 400 pixels
Display aspect ratio : 16:9
Frame rate : 25.000 fps
Color space : YUV
Chroma subsampling : 4:2:0
Bit depth : 8 bits
Scan type : Progressive
Compression mode : Lossy
Bits/(Pixel*Frame) : 0.181
Stream size : 537 MiB (77%)
Writing library : XviD 64
Audio #1
ID : 1
Format : AC-3
Format/Info : Audio Coding 3
Mode extension : CM (complete main)
Codec ID : 2000
Duration : 57mn 31s
Bit rate mode : Constant
Bit rate : 192 Kbps
Channel(s) : 2 channels
Channel positions : Front: L R
Sampling rate : 48.0 KHz
Bit depth : 16 bits
Compression mode : Lossy
Stream size : 79.0 MiB (11%)
Alignment : Split accross interleaves
Interleave, duration : 40 ms (1.00 video frame)
Interleave, preload duration : 500 ms
Audio #2
ID : 2
Format : AC-3
Format/Info : Audio Coding 3
Mode extension : CM (complete main)
Codec ID : 2000
Duration : 57mn 31s
Bit rate mode : Constant
Bit rate : 192 Kbps
Channel(s) : 2 channels
Channel positions : Front: L R
Sampling rate : 48.0 KHz
Bit depth : 16 bits
Compression mode : Lossy
Stream size : 79.0 MiB (11%)
Alignment : Split accross interleaves
Interleave, duration : 40 ms (1.00 video frame)
Interleave, preload duration : 500 ms"

Скриншоты


_________________
[Торрент-статистика]
[Профиль]  [ЛС] 
Показать сообщения:    
Ответить на тему

Текущее время: Сегодня 08:58

Часовой пояс: GMT + 4



Вы не можете начинать темы
Вы не можете отвечать на сообщения
Вы не можете редактировать свои сообщения
Вы не можете удалять свои сообщения
Вы не можете голосовать в опросах
Вы не можете прикреплять файлы к сообщениям
Вы не можете скачивать файлы