Задиры / Vexed / Сезон: 1 / Серия 1-3 из 3 (Мэтт Липси) [2010 г., драма, комедия, криминал , HDTVRip] [Первый канал]

Ответить на тему
 
Автор
Сообщение

awk05 ®

Пол:

Стаж: 4 года 5 месяцев

Сообщений: 1352

Репутация: 275 [+] [-]

Откуда: Западная Украина Ривне

Пост 02-Янв-2014 16:06

[Цитировать] 

-- Задиры / Vexed -- Год выпуска: 2010
Страна: Великобритания
Жанр: драма, комедия, криминал
Сезон/Серия: Сезон: 1 Серия 1-3 из 3
Перевод: Профессиональный (многоголосый, закадровый) - Первый канал
Продолжительность: 3 х ~ 00:59:00
Субтитры: нет--Режиссёр: Мэтт Липси--В ролях: Тоби Стивенс, Ронни Джатти, Роджер Гриффитс, Миранда Рэйсон, Люси Панч, Рори Киннер, Ник Даннинг, Сэм О’Махони-Адамс, Филип Дехэни, Кэтрин Бёрфорд и др.--Описание: Принципиально новый сериал, блестящий, динамичный, в жанре комедийной драмы, вращается вокруг Кейт и Джека, детективного дуэта с интересными взаимоотношениями.
Яркие, сексуальные и забавные моменты их личной жизни переплетены со случаями их расследований. Несмотря на то, что в первую очередь они - представители закона, детективов так же часто, как и всех прочих людей, постигает разочарование, обеспокоенность и неуверенность. Они всегда в пути, или в их неофициальном офисе - местном кафе напротив полицейского участка, где кофе и сплетни гораздо лучше. Их расследования могут многое рассказать о современной жизни в новой и занимательной форме."--Качество: HDTVRip
Формат: AVI
Видео кодек:: XviD
Аудио кодек:: AC3
Видео: 720х400 , 16:9 , 25.000 fps , ~1250 kbps avg , 0.170 bit/pixel
Аудио 1: 2 channels , 48 kHz , 192 kbps avg |Первый канал|
Аудио 2: 2 channels , 48 kHz , 192 kbps avg |English|--

MediaInfo

"Общее
Формат : AVI
Формат/Информация : Audio Video Interleave
Размер файла : 700 Мбайт
Продолжительность : 59 м.
Общий поток : 1650 Кбит/сек
Программа кодирования : VirtualDubMod 1.6.0.0 SURROUND (build 2560/release)
Библиотека кодирования : VirtualDubMod build 2560/release
Видео
Идентификатор : 0
Формат : MPEG-4 Visual
Профиль формата : Advanced Simple@L5
Параметр BVOP формата : 1
Параметр QPel формата : Нет
Параметр GMC формата : Без точки перехода
Параметр матрицы формата : Default (MPEG)
Идентификатор кодека : XVID
Идентификатор кодека/Подсказка : XviD
Продолжительность : 59 м.
Битрейт : 1251 Кбит/сек
Ширина : 720 пикселей
Высота : 400 пикселей
Соотношение сторон : 16:9
Частота кадров : 25,000 кадров/сек
Цветовое пространство : YUV
Субдискретизация насыщенности : 4:2:0
Битовая глубина : 8 бит
Тип развёртки : Прогрессивная
Метод сжатия : С потерями
Бит/(Пиксели*Кадры) : 0.174
Размер потока : 531 Мбайт (76%)
Библиотека кодирования : XviD 64
Аудио #1
Идентификатор : 1
Формат : AC-3
Формат/Информация : Audio Coding 3
Расширение режима : CM (complete main)
Параметр Endianness формата : Big
Идентификатор кодека : 2000
Продолжительность : 59 м.
Вид битрейта : Постоянный
Битрейт : 192 Кбит/сек
Каналы : 2 канала
Расположение каналов : Front: L R
Частота : 48,0 КГц
Битовая глубина : 16 бит
Метод сжатия : С потерями
Размер потока : 81,5 Мбайт (12%)
Выравнивание : Разделение по промежуткам
Продолжительность промежутка : 40 мс. (1,00 видеокадр)
Время предзагрузки промежутка : 500 мс.
Аудио #2
Идентификатор : 2
Формат : AC-3
Формат/Информация : Audio Coding 3
Расширение режима : CM (complete main)
Параметр Endianness формата : Big
Идентификатор кодека : 2000
Продолжительность : 59 м.
Вид битрейта : Постоянный
Битрейт : 192 Кбит/сек
Каналы : 2 канала
Расположение каналов : Front: L R
Частота : 48,0 КГц
Битовая глубина : 16 бит
Метод сжатия : С потерями
Размер потока : 81,5 Мбайт (12%)
Выравнивание : Разделение по промежуткам
Продолжительность промежутка : 40 мс. (1,00 видеокадр)
Время предзагрузки промежутка : 500 мс.

_________________
[Торрент-статистика]
[Профиль]  [ЛС] 
Показать сообщения:    
Ответить на тему

Текущее время: Сегодня 08:40

Часовой пояс: GMT + 4



Вы не можете начинать темы
Вы не можете отвечать на сообщения
Вы не можете редактировать свои сообщения
Вы не можете удалять свои сообщения
Вы не можете голосовать в опросах
Вы не можете прикреплять файлы к сообщениям
Вы не можете скачивать файлы