Власть Закона / The Chicago Code / Сезон: 1 / Серия 1-13 из 13 (Шон Райан) [2011 г., криминальная драма, WEB-DLRip] (Кубик в Кубе)

Ответить на тему
 
Автор
Сообщение

awk05 ®

Пол:

Стаж: 4 года 5 месяцев

Сообщений: 1352

Репутация: 275 [+] [-]

Откуда: Западная Украина Ривне

Пост 31-Дек-2013 03:32

[Цитировать] 

-- Власть Закона / The Chicago Code -- Год выпуска: 2011
Страна: США
Жанр: криминальная драма
Сезон/Серия: Сезон: 1 Серия 1-13 из 13
Перевод: Профессиональный двухголосый закадровый (Кубик в Кубе) + Original
Продолжительность: 13 х ~ 00:47:34
Субтитры: нет--Режиссёр: Шон Райан--В ролях: Джейсон Кларк (Джарек Высоки), Дженнифер Билз (Терес Колвин), Мэтт Лауриа (Калеб Эверс), Девин Келли (Вонда Высоки), Тодд Уильямс (Исаак Джойнер), Делрой Линдо (Ронин Гиббонс), Билли Луш (Лиам Хеннеси) и др.--Описание: Чикаго – город-парадокс, в котором происходит действие новой драмы от Шона Райана (The Shield, The Unit). Первое название сериала Ride-along обозначало ситуацию, по которой гражданский может провести некоторое время в пассажирском сиденье патрульной машины, наблюдая за рабочим днем офицера полиции. Но в этом сериале аудитория и есть пассажир, который отправляется в непредсказуемую поездку в мир преступности и коррупции на улицах Чикаго, путешествуя с самыми уважаемыми – и нашумевшими – полицейскими в городе.

Персонажы

Джарек Высоки – местная легенда и ветеран департамента полиции Чикаго. Как и весь Чикаго, Джарек – колючий и острый как бритва внутри, вежливый и очаровательный снаружи. Он меняет напарников как перчатки. Тереса Колвин взобралась на вершину департамента полиции Чикаго за короткий срок. Она полна решимости к переменам еще до того, как политические отбросы Чикаго заполонят её офис. В результате этого, на её пути появились весьма влиятельные враги, включая две уличные банды, союз офицеров полиции и городской олдермен, который оказывается опасным оппонентом. Калеб Эверс, новый напарник Джарека, умный и внимательный молодой детектив, который отчаянно хочет проявить себя. Намного сообразительнее и наблюдательнее, чем многие от него ожидают. Может прекрасно дополнить Джарека. Под командованием Джарека также находится его племянница Вонда Высоки, необстрелянный новичок полиции, отец которой (брат Джарека) был убит еще молодым при исполнении служебных обязанностей. Джарек пристально следит за ней и не очень-то рад тому, что она влюбилась в своего напарника Исаака Джойнера, харизматического копа, который зачастую неоправданно рискует, подвергая опасности себя и Вонду. Олдермен Ронин Гиббонс – бывший строительный магнат, а ныне политик, который управляет свои административным районом в течение трех десятилетий. Джарек и Тересса убеждены, что Гиббонс и его пособники, включая Лиама Хеннеси, ирландского крутого парня, полностью погрязли в преступлениях, однако доказательств этому у них пока нет. Когда расследование убийства приводит их к Гиббонсу, они полны решимости отдать его под суд и очистить Чикаго, если это еще возможно.
--Качество: WEB-DLRip
Формат: AVI
Видео кодек:: DivX
Аудио кодек:: MP3
Видео: 624х352 , 16х9 , 23.976 fps , ~864 kbps avg , 0.172 bit/pixel
Аудио 1: 2 channels , 48 kHz , 192 kbps avg
Аудио 2: 2 channels , 48 kHz , 384 kbps avg-- --

MediaInfo

General
Complete name : E:\Сериалы новые\The Chicago Code Season 1\the.chicago.code.s01e01.web-dlrip.rus.eng.novafilm.tv.avi
Format : AVI
Format/Info : Audio Video Interleave
File size : 401 MiB
Duration : 47mn 34s
Overall bit rate : 1 177 Kbps
Writing application : VirtualDubMod 1.5.10.2 (build 2542/release)
Writing library : VirtualDubMod build 2542/release
Video
ID : 0
Format : MPEG-4 Visual
Format settings, BVOP : 1
Format settings, QPel : No
Format settings, GMC : No warppoints
Format settings, Matrix : Default (H.263)
Muxing mode : Packed bitstream
Codec ID : DX50
Codec ID/Hint : DivX 5
Duration : 47mn 34s
Bit rate : 864 Kbps
Width : 624 pixels
Height : 352 pixels
Display aspect ratio : 16:9
Frame rate : 23.976 fps
Color space : YUV
Chroma subsampling : 4:2:0
Bit depth : 8 bits
Scan type : Progressive
Compression mode : Lossy
Bits/(Pixel*Frame) : 0.164
Stream size : 294 MiB (73%)
Writing library : DivX 6.8.3-6.8.4 (UTC 2008-06-07)
Audio #1
ID : 1
Format : MPEG Audio
Format version : Version 1
Format profile : Layer 3
Mode : Joint stereo
Mode extension : MS Stereo
Codec ID : 55
Codec ID/Hint : MP3
Duration : 47mn 34s
Bit rate mode : Constant
Bit rate : 128 Kbps
Channel count : 2 channels
Sampling rate : 48.0 KHz
Compression mode : Lossy
Stream size : 43.6 MiB (11%)
Alignment : Aligned on interleaves
Audio #2
ID : 2
Format : MPEG Audio
Format version : Version 1
Format profile : Layer 3
Mode : Joint stereo
Mode extension : MS Stereo
Codec ID : 55
Codec ID/Hint : MP3
Duration : 47mn 34s
Bit rate mode : Constant
Bit rate : 128 Kbps
Channel count : 2 channels
Sampling rate : 48.0 KHz
Compression mode : Lossy
Stream size : 43.6 MiB (11%)
Alignment : Aligned on interleaves

_________________
[Торрент-статистика]
[Профиль]  [ЛС] 
Показать сообщения:    
Ответить на тему

Текущее время: Сегодня 20:40

Часовой пояс: GMT + 4



Вы не можете начинать темы
Вы не можете отвечать на сообщения
Вы не можете редактировать свои сообщения
Вы не можете удалять свои сообщения
Вы не можете голосовать в опросах
Вы не можете прикреплять файлы к сообщениям
Вы не можете скачивать файлы