Разведка / Intelligence / Сезон: 1-2 / Серия 1-26 из 26 (Крис Хаддок) [2006-2007 г., Триллер, криминал, детектив , HDTVRip]

Ответить на тему
 
Автор
Сообщение

awk05 ®

Пол:

Стаж: 4 года 5 месяцев

Сообщений: 1352

Репутация: 275 [+] [-]

Откуда: Западная Украина Ривне

Пост 31-Дек-2013 01:53

[Цитировать] 

-- Разведка / Intelligence -- Год выпуска: 2006-2007
Страна: Канада, CBC Television
Жанр: Триллер, криминал, детектив
Сезон/Серия: Сезон: 1-2 Серия 1-26 из 26
Перевод: Профессиональный (многоголосый, закадровый)
Продолжительность: 26 х ~ 00:46:08
Субтитры: нет--Режиссёр: Крис Хаддок--В ролях: Иэн Трейси, Клеа Скотт, Джон Кассини, Мэт Фревер, Алана Хасбанд, Кайла Вайз--Описание: Управление по борьбе с организованной преступностью Ванкувера — это наделенный широкими полномочиями следственный орган, который ведет наблюдение за Джимми Реардоном, известным преступником. Будучи главой третьего поколения мафиозного клана, Реардон контролирует обширную криминальную структуру, включая значительную часть производства марихуаны и контрабандные перевозки по Британской Колумбии. У Джимми все больше возникает подозрение, что за ним и за его людьми ведется наблюдение. Он не знает, кто именно занимается этим, и намерен все выяснить…--Качество: HDTVRip
Формат: AVI
Видео кодек:: XviD
Аудио кодек:: AC3
Видео: 720х400 , 16х9 , 23.976 fps , ~1656 kbps avg , 0.240 bit/pixel
Аудио 1: 2 channels , 48 kHz , 192 kbps avg
Аудио 2: 6 channels , 48 kHz , 384 kbps avg Front: L C R, Side: L R, LFE--

MediaInfo

"Общее
Полное имя : D:\Video\Разведка 1-2 сезон\Intelligence.S01\Intelligence.S01E01.avi
Формат : AVI
Формат/Информация : Audio Video Interleave
Размер файла : 723 Мбайт
Продолжительность : 45 м.
Общий поток : 2246 Кбит/сек
Программа кодирования : VirtualDubMod 1.5.10.3 | www.virtualdub-fr.org || (build 2550/release)
Библиотека кодирования : VirtualDubMod build 2550/release
Видео
Идентификатор : 0
Формат : MPEG-4 Visual
Профиль формата : Advanced Simple@L5
Параметр BVOP формата : 2
Параметр QPel формата : Нет
Параметр GMC формата : Без точки перехода
Параметр матрицы формата : Default (MPEG)
Идентификатор кодека : XVID
Идентификатор кодека/Подсказка : XviD
Продолжительность : 45 м.
Битрейт : 1656 Кбит/сек
Ширина : 720 пикселей
Высота : 400 пикселей
Соотношение сторон : 16:9
Частота кадров : 23,976 кадра/сек
Цветовое пространство : YUV
Субдискретизация насыщенности : 4:2:0
Битовая глубина : 8 бит
Тип развёртки : Прогрессивная
Метод сжатия : С потерями
Бит/(Пиксели*Кадры) : 0.240
Размер потока : 533 Мбайт (74%)
Библиотека кодирования : XviD 73
Аудио #1
Идентификатор : 1
Формат : AC-3
Формат/Информация : Audio Coding 3
Расширение режима : CM (complete main)
Параметр Endianness формата : Big
Идентификатор кодека : 2000
Продолжительность : 45 м.
Вид битрейта : Постоянный
Битрейт : 192 Кбит/сек
Каналы : 2 канала
Расположение каналов : Front: L R
Частота : 48,0 КГц
Битовая глубина : 16 бит
Метод сжатия : С потерями
Размер потока : 61,8 Мбайт (9%)
Выравнивание : Разделение по промежуткам
Продолжительность промежутка : 42 мс. (1,00 видеокадр)
Время предзагрузки промежутка : 500 мс.
Аудио #2
Идентификатор : 2
Формат : AC-3
Формат/Информация : Audio Coding 3
Расширение режима : CM (complete main)
Параметр Endianness формата : Big
Идентификатор кодека : 2000
Продолжительность : 45 м.
Вид битрейта : Постоянный
Битрейт : 384 Кбит/сек
Каналы : 6 каналов
Расположение каналов : Front: L C R, Side: L R, LFE
Частота : 48,0 КГц
Битовая глубина : 16 бит
Метод сжатия : С потерями
Размер потока : 124 Мбайт (17%)
Выравнивание : Разделение по промежуткам
Продолжительность промежутка : 42 мс. (1,00 видеокадр)
Время предзагрузки промежутка : 500 мс.
"

Список серий

"1 Сезон
0. Pilot
1. Where Good Men Die Like Dogs
2. A Champagne Payday
3. Don't Break Your Brother's Heart
4. Jimmy's Got a Money Machine
5. Where There's One There's Another
6. Pressure Drop
7. Love and War
8. Clean and Simple
9. Cleaning Up
10. Things Change
11. Not a Nice Boy!
12. Dante's Inferno
13. Down But Not Out
2 Сезон
1. A Man Escapes
2. A Man Is Framed
3. A Man Underground
4. A Man and a Woman Betrayed
5. Love and Conspiracy
6. Something in the Air
7. A Sweetheart Deal with the Devil
8. Flipping the Script
9. A Woman Inside
10. The Heat Is On
11. A Dark Alliance
12. We Were Here Now We Disappear"

Скриншоты


_________________
[Торрент-статистика]
[Профиль]  [ЛС] 
Показать сообщения:    
Ответить на тему

Текущее время: Сегодня 20:31

Часовой пояс: GMT + 4



Вы не можете начинать темы
Вы не можете отвечать на сообщения
Вы не можете редактировать свои сообщения
Вы не можете удалять свои сообщения
Вы не можете голосовать в опросах
Вы не можете прикреплять файлы к сообщениям
Вы не можете скачивать файлы