Грейсленд / Graceland / Сезон: 1 / Серия 1-12 из 12 (Ренни Харлин) [2013 г., драма , WEB-DLRip] (NewStudio)

Ответить на тему
 
Автор
Сообщение

awk05 ®

Пол:

Стаж: 4 года 5 месяцев

Сообщений: 1352

Репутация: 275 [+] [-]

Откуда: Западная Украина Ривне

Пост 30-Дек-2013 17:25

[Цитировать] 

-- Грейсленд / Graceland -- Год выпуска: 2013
Страна: США
Жанр: драма
Сезон/Серия: Сезон: 1 Серия 1-12 из 12
Перевод: Профессиональный (многоголосый закадровый)
Продолжительность: 12 х 0:58:00
Субтитры: нет--Режиссёр: Ренни Харлин--В ролях: Дэниел Сунджата, Ванесса Ферлито, Брэндон Джей МакЛарен, Стивен Л. Коэн, Том Стэдхем, Аарон Твейт, Мэнни Монтана--Описание: "Новый сериал от создателей ""Белого воротничка"" - ""Graceland""
Сотрудников наркоконтроля, ФБР и таможенной службы собирают в одном доме, который получил название ""Грейсленд"", для работы под прикрытием. Молодой агент Майк Уоррен (Аарон Твейт), поступает под руководство более опытного коллеги агента Пола Бриггса (Дэниел Сунджата), который готов приплатить Майку, лишь бы тот сбежал.--
Озвучка: Александр Дасевич, Константин Погодаев, Владимир Курдов, Анна Тух
Перевод: Александра Цернант
Подготовка видео: Baggio
Постер: Vortex--Качество: WEB-DLRip
Формат: AVI
Видео кодек:: XviD
Аудио кодек:: MP3
Видео: 720х400 , 1:80:1 , 23.976 fps , ~1250 kbps avg , 0.19 bit/pixel
Аудио #1: 2 ch , 48 kHz , 128.00 kbps avg
Аудио #2: 2 ch , 48 kHz , 128.00 kbps avg-- --

MediaInfo

"Общее
Полное имя : I:\Грейсленд (Сезон 1) NewStudio\Graceland.s01e01.WEBDLRip.NewStudio.TV.avi
Формат : AVI
Формат/Информация : Audio Video Interleave
Размер файла : 700 Мбайт
Продолжительность : 1 ч. 2 м.
Общий поток : 1558 Кбит/сек
Программа кодирования : VirtualDubMod 1.5.10.2 (build 2540/release)
Библиотека кодирования : VirtualDubMod build 2540/release
Видео
Идентификатор : 0
Формат : MPEG-4 Visual
Профиль формата : Advanced Simple@L5
Параметр BVOP формата : 2
Параметр QPel формата : Нет
Параметр GMC формата : Без точки перехода
Параметр матрицы формата : Default (MPEG)
Идентификатор кодека : XVID
Идентификатор кодека/Подсказка : XviD
Продолжительность : 1 ч. 2 м.
Битрейт : 1288 Кбит/сек
Ширина : 720 пикселей
Высота : 400 пикселей
Соотношение сторон : 16:9
Частота кадров : 23,976 кадра/сек
Цветовое пространство : YUV
Субдискретизация насыщенности : 4:2:0
Битовая глубина : 8 бит
Тип развёртки : Прогрессивная
Метод сжатия : С потерями
Бит/(Пиксели*Кадры) : 0.187
Размер потока : 578 Мбайт (83%)
Библиотека кодирования : XviD 64
Аудио #1
Идентификатор : 1
Формат : MPEG Audio
Версия формата : Version 1
Профиль формата : Layer 3
Режим : Joint stereo
Идентификатор кодека : 55
Идентификатор кодека/Подсказка : MP3
Продолжительность : 1 ч. 2 м.
Вид битрейта : Постоянный
Битрейт : 128 Кбит/сек
Каналы : 2 канала
Частота : 48,0 КГц
Метод сжатия : С потерями
Размер потока : 57,5 Мбайт (8%)
Выравнивание : Соединение по промежуткам
Продолжительность промежутка : 42 мс. (1,00 видеокадр)
Время предзагрузки промежутка : 504 мс.
Аудио #2
Идентификатор : 2
Формат : MPEG Audio
Версия формата : Version 1
Профиль формата : Layer 3
Режим : Joint stereo
Расширение режима : MS Stereo
Идентификатор кодека : 55
Идентификатор кодека/Подсказка : MP3
Продолжительность : 1 ч. 2 м.
Вид битрейта : Постоянный
Битрейт : 128 Кбит/сек
Каналы : 2 канала
Частота : 48,0 КГц
Метод сжатия : С потерями
Размер потока : 57,5 Мбайт (8%)
Выравнивание : Соединение по промежуткам
Продолжительность промежутка : 42 мс. (1,00 видеокадр)
Время предзагрузки промежутка : 504 мс."

Список серий

1. Graceland
2. Guadalajara Dog
3. Heat Run
4. Pizza Box
5. O-Mouth
6. Hair of the Dog
7. Goodbye High
8. Bag Man
9. Smoke Alarm
10. King's Castle
11. Happy Endings
12. Pawn"

Скриншоты

"

_________________
[Торрент-статистика]
[Профиль]  [ЛС] 
Показать сообщения:    
Ответить на тему

Текущее время: Сегодня 06:26

Часовой пояс: GMT + 4



Вы не можете начинать темы
Вы не можете отвечать на сообщения
Вы не можете редактировать свои сообщения
Вы не можете удалять свои сообщения
Вы не можете голосовать в опросах
Вы не можете прикреплять файлы к сообщениям
Вы не можете скачивать файлы