Валландер / Wallander (SE) / Сезон: 3 / Серии: 1-3 из 6 (Стефан Апельгрен, Агнета Фагерстрем-Олссон, Лейф Магнуссон) [2013, триллер, детектив, HDRip] DVO (Agatha Studdio) + Original

Ответить на тему
 
Автор
Сообщение

awk05 ®

Пол:

Стаж: 4 года 5 месяцев

Сообщений: 1352

Репутация: 275 [+] [-]

Откуда: Западная Украина Ривне

Пост 29-Дек-2013 19:59

[Цитировать] 

--Валландер / Wallander-- Год выпуска: 2013
Страна: Швеция
Жанр: детектив
Сезон/Серия: Сезон:3 /Серия 1-6 из 6
Продолжительность: 6 х ~ 01:39:11
Перевод: профессиональный многоголосый закадровый, (Agatha Studdio) + Original
Русские субтитры: нет--Режиссёр: Стефан Апельгрен, Агнета Фагерстрем-Олссон, Лейф Магнуссон--В ролях: Кристер Хенрикссон, Фредерик Гуннарссон, Матс Бергман, Дуглас Йоханссон, Марианне Мёрк, Стина Экблад, Юанна Сальстрём, Лена Эндре, Ола Рапас, Сверрир Гуднасон--Описание: Комиссар полиции Курт Валландер — впечатлительный и упрямый мизантроп, который ест мало, спит нерегулярно, зато много пьёт и слушает оперную музыку. Он резок и использует нестандартные методы работы. Он полагается на свои собственную интуицию и опыт и не брезгует незаконными способами раскрытия преступлений. Это не мускулистый и жесткий полицейский, а думающий, тонкий человек. У Валландера родилась внучка и он изо всех сил старается быть хорошим дедом: помирился с дочерью Линдой, и они снова работают вместе--Качество: HDRip
Формат: AVI
Видео кодек: XviD
Аудио кодек: MP3
Видео :720x400 (16:9), 25.000 fps, MPEG4 Visual 1 537 Kbps, 0.213 bit/pixel
Аудио 1: RUS - 192 Кб/сек 48 kHz, MPEG Layer 3, 2 ch
Аудио 2: SWE - 192 Кб/сек 48 kHz, MPEG Layer 3, 2 ch-- --

Список серий

1-ый эпизод: Den orolige mannen / Неугомонный
По одноимённой книге "Неугомонный" Хеннинга Манкелля, последней из серии "Валландер". В шведских кинотеатрах с 11 января 2013 года. На DVD с 22 мая.
Описание: Однажды утром рыбак вылавливает тело военного водолаза, пропавшего во времена холодной войны, когда свёкр Линды - офицер флота высокого ранга Хокан фон Энке - руководил операцией по захвату иностранной субмарины, вторгшейся в воды Швеции. И Валландер, неожиданно вовлечённый в шпионские игры, сталкивается с вопросом: что для него важнее – правда или семья?
2-ой эпизод: Försvunnen / Пропавшая
Описание: Курт возвращается на работу после отстранения. Исчезает девочка, в поисках которой задействована полиция Истада и военные. В ходе расследования Курт начинает видеть в деле сходство со случаем десятилетней давности, который он принял близко к сердцу.
3-ий эпизод: Sveket / Предательство
Описание: Юная девушка приходит в полицейский участок Истада, чтобы заявить о пропаже матери. Позднее мать находят мёртвой на пляже семейной виллы. Её муж становится главным подозреваемым. Мартинссон обращает внимание на всё возрастающую забывчивость Курта.
4-ый эпизод: Saknaden
5-ый эпизод: Mordbrännaren
6-ой эпизод: Sorgfågeln

Скриншоты

MediaInfo

General
Complete name : E:\Wallander.SU.s03.Agatha.Studdio\Wallander.SU.s03e01_Agatha.Studdio.avi
Format : AVI
Format/Info : Audio Video Interleave
File size : 1.35 GiB
Duration : 1h 39mn
Overall bit rate : 1 942 Kbps
Video
ID : 0
Format : MPEG-4 Visual
Format profile : Advanced Simple@L5
Format settings, BVOP : 2
Format settings, QPel : No
Format settings, GMC : No warppoints
Format settings, Matrix : Default (H.263)
Codec ID : XVID
Codec ID/Hint : XviD
Duration : 1h 39mn
Bit rate : 1 537 Kbps
Width : 720 pixels
Height : 400 pixels
Display aspect ratio : 16:9
Frame rate : 25.000 fps
Color space : YUV
Chroma subsampling : 4:2:0
Bit depth : 8 bits
Scan type : Progressive
Compression mode : Lossy
Bits/(Pixel*Frame) : 0.213
Stream size : 1.07 GiB (79%)
Writing library : XviD 1.2.1 (UTC 2008-12-04)
Audio #1
ID : 1
Format : MPEG Audio
Format version : Version 1
Format profile : Layer 3
Codec ID : 55
Codec ID/Hint : MP3
Duration : 1h 39mn
Source duration : 1h 39mn
Bit rate mode : Constant
Bit rate : 192 Kbps
Channel(s) : 2 channels
Sampling rate : 48.0 KHz
Compression mode : Lossy
Stream size : 136 MiB (10%)
Alignment : Aligned on interleaves
Interleave, duration : 24 ms (0.60 video frame)
Audio #2
ID : 2
Format : MPEG Audio
Format version : Version 1
Format profile : Layer 3
Codec ID : 55
Codec ID/Hint : MP3
Duration : 1h 39mn
Source duration : 1h 39mn
Bit rate mode : Constant
Bit rate : 192 Kbps
Channel(s) : 2 channels
Sampling rate : 48.0 KHz
Compression mode : Lossy
Stream size : 136 MiB (10%)
Alignment : Aligned on interleaves
Interleave, duration : 24 ms (0.60 video frame)
К сожалению, озвучание сериала приостановлено

_________________
[Торрент-статистика]
[Профиль]  [ЛС] 
Показать сообщения:    
Ответить на тему

Текущее время: Сегодня 08:41

Часовой пояс: GMT + 4



Вы не можете начинать темы
Вы не можете отвечать на сообщения
Вы не можете редактировать свои сообщения
Вы не можете удалять свои сообщения
Вы не можете голосовать в опросах
Вы не можете прикреплять файлы к сообщениям
Вы не можете скачивать файлы