Валландер / Wallander (SE) / Сезон: 2 / Серии: 1-26 (Стефан Апельгрен, Агнета Фагерстрем-Олссон, Лейф Магнуссон) [2008, Детектив, SATRip]

Ответить на тему
 
Автор
Сообщение

awk05 ®

Пол:

Стаж: 4 года 5 месяцев

Сообщений: 1352

Репутация: 275 [+] [-]

Откуда: Западная Украина Ривне

Пост 29-Дек-2013 19:43

[Цитировать] 

--Валландер / Wallander-- Год выпуска: 2008
Страна: Швеция
Жанр: детектив
Сезон/Серия: Сезон:2 /Серия 1-26 из 26
Продолжительность: 26 х ~ 00:45:00
Перевод: профессиональный многоголосый закадровый, ТПО «РЕД МЕДИА»
Русские субтитры: нет--Режиссёр: Стефан Апельгрен, Агнета Фагерстрем-Олссон, Лейф Магнуссон--В ролях: Кристер Хенрикссон, Фредерик Гуннарссон, Матс Бергман, Дуглас Йоханссон, Марианне Мёрк, Стина Экблад, Юанна Сальстрём, Лена Эндре, Ола Рапас, Сверрир Гуднасон--Описание: Продолжение популярного шведского сериала по сюжетам произведений Хеннинга Манкелля. Главный герой - не мускулистый и жесткий полицейский, а думающий, тонкий человек, интуитивно чувствующий криминальные хитросплетения и отдающий всего себя своему делу, - комиссар уголовной полиции Курт Валландер. Во втором сезоне команда полицейских под руководством Валланлера расследует новые шокирующие преступления: серия взрывов, всколыхнувших Истад; исчезновение и смерть подростка; незаконный оборот наркотиков и жестокие убийства.--Доп. информация: Каждый сюжет состоит из 2 серий. Всего в сезоне 13 сюжетов (26 серий).--Качество: SATRip
Формат: AVI
Видео кодек: DivX
Аудио кодек: MP3
Видео: DivX, 688x400, 16:9, 25000fps, ~ 1 184 Kbps, 0.179 bit/pixel
Аудио: MP3, MPEG Audio Layer 3, 48000 Гц stereo, 2 ch, 128 Кбит/с,-- --

MI

General
File: walland2.01.avi
Format : AVI
Format/Info : Audio Video Interleave
File size : 451 MiB
Duration : 47mn 50s
Overall bit rate : 1 318 Kbps
Writing library : AVI OpenDML FlasKMPEG plugin release
Video
ID : 0
Format : MPEG-4 Visual
Format settings, BVOP : Yes
Format settings, QPel : No
Format settings, GMC : No warppoints
Format settings, Matrix : Default (H.263)
Muxing mode : Packed bitstream
Codec ID : DX50
Codec ID/Hint : DivX 5
Duration : 47mn 50s
Bit rate : 1 184 Kbps
Width : 688 pixels
Height : 384 pixels
Display aspect ratio : 16:9
Frame rate : 25.000 fps
Resolution : 8 bits
Colorimetry : 4:2:0
Scan type : Progressive
Bits/(Pixel*Frame) : 0.179
Stream size : 405 MiB (90%)
Writing library : DivX 6.8.2 (UTC 2008-05-17)
Audio
ID : 1
Format : MPEG Audio
Format version : Version 1
Format profile : Layer 3
Mode : Joint stereo
Format_Settings_ModeExtension : MS Stereo
Codec ID : 55
Codec ID/Hint : MP3
Duration : 47mn 50s
Bit rate mode : Constant
Bit rate : 128 Kbps
Channel(s) : 2 channels
Sampling rate : 48.0 KHz
Stream size : 43.8 MiB (10%)
Alignment : Split accross interleaves
Interleave, duration : 200 ms (5.00 video frames)
Writing library : LAME3.97

Скриншоты


_________________


Последний раз редактировалось: awk05 (2013-12-29 21:03), всего редактировалось 1 раз
[Торрент-статистика]
[Профиль]  [ЛС] 

ttan

Пол:

Стаж: 4 года 7 месяцев

Сообщений: 606

Репутация: 362 [+] [-]

Откуда: где - то на Севере ...

Пост 29-Дек-2013 20:19 (спустя 36 минут)

[Цитировать] 

а rutracker.org уже не даёт скачивать ...
и куда идём ... bu

_________________
[Торрент-статистика]
[Профиль]  [ЛС] 

awk05 ®

Пол:

Стаж: 4 года 5 месяцев

Сообщений: 1352

Репутация: 275 [+] [-]

Откуда: Западная Украина Ривне

Пост 29-Дек-2013 20:26 (спустя 6 минут)

[Цитировать] 

rutor.org

_________________
[Торрент-статистика]
[Профиль]  [ЛС] 
Показать сообщения:    
Ответить на тему

Текущее время: Сегодня 18:21

Часовой пояс: GMT + 4



Вы не можете начинать темы
Вы не можете отвечать на сообщения
Вы не можете редактировать свои сообщения
Вы не можете удалять свои сообщения
Вы не можете голосовать в опросах
Вы не можете прикреплять файлы к сообщениям
Вы не можете скачивать файлы