Валландер / Wallander (SE) / Сезон: 1 / Серии: 1-26 (Стефан Апельгрен, Агнета Фагерстрем-Олссон, Лейф Магнуссон) [2005, детектив, SATRip]

Ответить на тему
 
Автор
Сообщение

awk05 ®

Пол:

Стаж: 4 года 5 месяцев

Сообщений: 1352

Репутация: 275 [+] [-]

Откуда: Западная Украина Ривне

Пост 29-Дек-2013 19:32

[Цитировать] 

--Валландер / Wallander-- Год выпуска: 2005
Страна: Швеция
Жанр: детектив
Сезон/Серия: Сезон:1 /Серия 1-26 из 26
Продолжительность: 26 х ~ 00:45:00
Перевод: профессиональный многоголосый закадровый, ТПО «РЕД МЕДИА»
Русские субтитры: нет--Режиссёр: Стефан Апельгрен, Агнета Фагерстрем-Олссон, Лейф Магнуссон--В ролях: Кристер Хенрикссон, Фредерик Гуннарссон, Матс Бергман, Дуглас Йоханссон, Марианне Мёрк, Стина Экблад, Юанна Сальстрём, Лена Эндре, Ола Рапас, Сверрир Гуднасон--Описание: Детективный сериал по сюжетам произведений Хеннинга Манкелля. Умело закрученные криминальные истории, интригующие, завораживающие, а порой шокирующие, в центре которых находится не мускулистый и жесткий полицейский, а думающий, тонкий человек, отдающий всего себя своему делу, - комиссар уголовной полиции Курт Валландер. Он просто женат на своей работе. Его дочь, Линда, окончила полицейскую школу и также начала службу в полиции Истада. Команда полицейских под руководством Валланлера расследует самые разнообразные уголовные дела: терроризм, исчезновения людей, преступления на религиозной почве и кровавые убийства.--Доп. информация: Каждый сюжет состоит из 2 серий. Всего в сезоне 13 сюжетов (26 серий).--Качество: SATRip
Формат: AVI
Видео кодек: DivX
Аудио кодек: MP3
Видео: DivX, 688x400,16:9, 25000fps, ~ 1 257 Kbps, 0.183 bit/pixel
Аудио: MP3, MPEG Audio Layer 3, 48000 Гц stereo, 2 ch, 128 Кбит/с,-- --

Наименование эпизодов

1-ый эпизод: Innan Frosten
2-ой эпизод: Byfanen
3-ий эпизод: Broderna
4-ый эпизод: Morkret
5-ый эпизод: Afrikanen
6-ой эпизод: Mastermind
7-ой эпизод: Den Svaga Punkten
8-ой эпизод: Fotografen
9-ый эпизод: Tackmanteln
10-й эпизод: Luftslottet
11-й эпизод: Blodsband
12-й эпизод: Jokern
13-й эпизод: Hemlighten

MI

walland1.01.avi
Format : AVI
Format/Info : Audio Video Interleave
File size : 449 MiB
Duration : 45mn 5s
Overall bit rate : 1 391 Kbps
Writing library : AVI OpenDML FlasKMPEG plugin release
Video
ID : 0
Format : MPEG-4 Visual
Format settings, BVOP : Yes
Format settings, QPel : No
Format settings, GMC : No warppoints
Format settings, Matrix : Default (H.263)
Muxing mode : Packed bitstream
Codec ID : DX50
Codec ID/Hint : DivX 5
Duration : 45mn 5s
Bit rate : 1 257 Kbps
Width : 688 pixels
Height : 400 pixels
Display aspect ratio : 16:9
Frame rate : 25.000 fps
Resolution : 8 bits
Colorimetry : 4:2:0
Scan type : Progressive
Bits/(Pixel*Frame) : 0.183
Stream size : 405 MiB (90%)
Writing library : DivX 6.8.2 (UTC 2008-05-17)
Audio
ID : 1
Format : MPEG Audio
Format version : Version 1
Format profile : Layer 3
Mode : Joint stereo
Format_Settings_ModeExtension : MS Stereo
Codec ID : 55
Codec ID/Hint : MP3
Duration : 45mn 5s
Bit rate mode : Constant
Bit rate : 128 Kbps
Channel(s) : 2 channels
Sampling rate : 48.0 KHz
Stream size : 41.3 MiB (9%)
Alignment : Split accross interleaves
Interleave, duration : 200 ms (5.00 video frames)
Writing library : LAME3.97

Скриншоты


_________________
[Торрент-статистика]
[Профиль]  [ЛС] 
Показать сообщения:    
Ответить на тему

Текущее время: Сегодня 04:14

Часовой пояс: GMT + 4



Вы не можете начинать темы
Вы не можете отвечать на сообщения
Вы не можете редактировать свои сообщения
Вы не можете удалять свои сообщения
Вы не можете голосовать в опросах
Вы не можете прикреплять файлы к сообщениям
Вы не можете скачивать файлы