Тайна секретного бастиона / Тайна крепости шифров / Tajemnica twierdzy szyfrow / Tajemstvi sifrovaci veze (1-13 серий из 13) (Адек Драбинский / Adek Drabinski) [2007 г., Драма, военный, боевик, DVDRip]

Ответить на тему
 
Автор
Сообщение

awk05 ®

Пол:

Стаж: 4 года 5 месяцев

Сообщений: 1352

Репутация: 275 [+] [-]

Откуда: Западная Украина Ривне

Пост 29-Дек-2013 00:24

[Цитировать] 

--Тайна секретного бастиона / Тайна крепости шифровTajemnica twierdzy szyfrow / Tajemstvi sifrovaci veze-- Год выпуска: 2007
Страна: Польша / TV Polska / TVP1
Жанр: Драма, военный, боевик
Сезон/Серия: Сезон:1 /Серия 1-13 из 13
Продолжительность: 13 x ~ 00:45:34
Перевод: Авторский одноголосый (Юрий Живов)
Русские субтитры: нет--Режиссер Адек Драбинский / Adek Drabinski--В ролях Павел Малачинский, Павел Дэлонг, Петр Грабовский, Агата Бузек, Томаш Дэдэк, Юльюша Кшиштоф Варунэк, Цезарий Жак, Мартин Босак, Мартин Дарациньски, Борис Шыц, Ян Фрыч, Гжегош Ковальчик, Анна Дерешовска, Денута Стэнка, Каролина Грушко, Земовит Пензивятр, Петр Варшавский, Марек Барбасевич, Пётр Зельт, Адам Воронович, Збигнев Русинский, Гржегорц Пшибыл, Славомир Ожеховский, Лукаш Новиски, Андзей Мрожевский, Ян Мончка, Андзей Глейзер, Пётр Гарлицкий--Описание Фильм снят по книге "Крепость шифров" написанной Богуславом Волошанским. Вторая Мировая война, март 1945 года. Сериал рассказывает о том, как в конце войны американская и советская разведки пытались заполучить немецкую дешифровальную машину, прозванную союзниками рыба-меч. Начинается операция по захвату , ближе всех к которой находится Йорг сотрудник польской разведки, работающий в немецком криптологическом подразделении "Pers Z" в Еленя-Гуре под именем капитана Йоганна Йорга . Машина взламывала советские одноразовые шифры. Причем, даже те, что считались непробиваемыми. По сути, она являлась прототипом нынешних компьютеров. Сконструировали ее немцы после фатальных ошибок, допущенных советским командованием. Когда в 1941–1942 годах многократно использовались одни и те же одноразовые шифры немцы приняли более 300 тысяч советских шифровок.--Качество: DVDRip
Формат: AVI
Видео кодек: XviD
Аудио кодек: AC3
Видео: 688x304 (2.25:1), 25 fps, XviD MPEG-4 ~1163 kbps avg, 0.222 bit/pixel
Аудио: 48 kHz, AC3 Dolby Digital, 2/0 (L,R) ch, ~256 kbps--

MediaInfo

General
Complete name : E:\Сериалы новые\Taina.sekretnogo.bastiona.(13.seriy.iz.13).2007.XviD.DVDRip\Taina.sekretnogo.bastiona.(01.seriya.iz.13).2007.XviD.DVDRip.avi
Format : AVI
Format/Info : Audio Video Interleave
File size : 466 MiB
Duration : 45mn 34s
Overall bit rate : 1 428 Kbps
Writing application : VirtualDubMod 1.5.10.1 Рус от Stvens Inc.™ www.stvens.amillo.net (build 2439/release)
Writing library : VirtualDub build 30009/release
Video
ID : 0
Format : MPEG-4 Visual
Format profile : Advanced Simple@L5
Format settings, BVOP : 2
Format settings, QPel : No
Format settings, GMC : No warppoints
Format settings, Matrix : Default (H.263)
Muxing mode : Packed bitstream
Codec ID : XVID
Codec ID/Hint : XviD
Duration : 45mn 34s
Bit rate : 1 163 Kbps
Width : 688 pixels
Height : 304 pixels
Display aspect ratio : 2.25:1
Frame rate : 25.000 fps
Color space : YUV
Chroma subsampling : 4:2:0
Bit depth : 8 bits
Scan type : Progressive
Compression mode : Lossy
Bits/(Pixel*Frame) : 0.222
Stream size : 379 MiB (81%)
Writing library : XviD 1.2.0.dev47 (UTC 2006-11-01)
Audio
ID : 1
Format : AC-3
Format/Info : Audio Coding 3
Mode extension : CM (complete main)
Format settings, Endianness : Big
Codec ID : 2000
Duration : 45mn 34s
Bit rate mode : Constant
Bit rate : 256 Kbps
Channel count : 2 channels
Channel positions : Front: L R
Sampling rate : 48.0 KHz
Bit depth : 16 bits
Compression mode : Lossy
Delay relative to video : 16ms
Stream size : 83.5 MiB (18%)
Alignment : Split accross interleaves
Interleave, duration : 40 ms (1.00 video frame)
Interleave, preload duration : 500 ms

_________________
[Торрент-статистика]
[Профиль]  [ЛС] 
Показать сообщения:    
Ответить на тему

Текущее время: Сегодня 09:02

Часовой пояс: GMT + 4



Вы не можете начинать темы
Вы не можете отвечать на сообщения
Вы не можете редактировать свои сообщения
Вы не можете удалять свои сообщения
Вы не можете голосовать в опросах
Вы не можете прикреплять файлы к сообщениям
Вы не можете скачивать файлы