Робин Гуд / Robin Hood / Сезон: 1-3 / Серии: 1-39 (39) (Мэттью Эванс, Доминик Мангелла) [2006-2009, боевик, мелодрама, драма, приключения] (Студия СВ-Дубль "Культура") + Original Eng

Ответить на тему
 
Автор
Сообщение

awk05 ®

Пол:

Стаж: 4 года 5 месяцев

Сообщений: 1352

Репутация: 275 [+] [-]

Откуда: Западная Украина Ривне

Пост 28-Дек-2013 19:46

[Цитировать] 

--Робин Гуд/Robin Hood-- Год выпуска: 2006-2009
Страна: Великобритания
Жанр: боевик, мелодрама, драма, приключения
Сезон/Серия: Сезон:1-3 /Серия 1-39 из 39
Продолжительность: 39 х 00:44:44
Перевод: многоголосый профессиональный (Студия СВ-Дубль "Культура")
Субтитры: отсутствуют--Режисер: Мэттью Эванс, Доминик Мангелла--В ролях: Джонас Армстронг, Ричард Эрмитаж, Кейт Аллен, Гордон Кеннеди, Сэм Тротон, Джо Армстронг, Гарри Ллойд, Анджелина Джай, Майкл Элвин и др.--

Описание:

Робин, граф Хантингдон, вместе со своим слугой Мачем, сыном Мельника, возвращается из Святой земли, где пять лет сражался плечом к плечу с королём Ричардом Львиное Сердце. Возвратившись, Робин понимает, что порядки изменились: шерифом Ноттингема стал некий Вейзи, а поместье Робина - Локсли - отдано правой руке шерифа, сэру Гаю Гизборну. Даже бывшая девушка – Мериан - не встречает юношу радушно: она всё ещё в обиде на него за уход в Святую Землю. Сэр Эдвард - отец Мериан и бывший шериф Ноттингемский - советует юноше не выступать против власти и подчиниться новому шерифу. Робина не устраивает такая ситуация, он вступает в конфликт с Вейзи и вынужден скрыться в лесу. Но и там его и Мача не принимают - они встречают сопротивление шайки местных разбойников во главе с "Малышом" Джоном. Робин убеждает их объединить силы в борьбе с деспотичным шерифом и его помощником. От крестьян, которым помогает Робин Гуд, он узнаёт, что во время его похода в Ноттингеме появился Ночной Дозорный – человек, который спасал от голода и нищеты всех крестьян. В один день выясняется, что это была Мэриан. Но эта общая тайна между Робином и Мэриан, потому что за благотворительность и подрыв власти шерифа Ночному Дозорному грозит повешение. Тем временем Мериан находится в замке и рассказывает Робину о тайные злодеяниях и подписании предательских документов. Вскоре шериф догадывается, что в замке есть шпион, и его подозрение в первую очередь падает на Мериан. Она не принимает ухаживания его правой руки Гая Гизборна, защищает крестьян. Гизборн в форме ультиматума делает Мэрион предложения о женитьбе, и девушка, понимая, что в случае отказа её ждёт смерть, соглашается. Робин слышит их беседу и решает сделать всё, чтобы спасти Мериан от брака. Во время их официальной помолвки Робин грабит гостей и сражается с Гизборном. Случайно порезав ему рукав и увидев татуировку, Робин становится вне себя. Когда-то человек с именно такой татуировкой пытался убить короля. Он рассказывает об этом Мериан, она в замешательстве и не знает, как поступить, но перед свадьбой она решает совершить последнее благое дело Ночного Дозорного. Она грабит Гизборна, который во время побега с деньгами ранит девушку кинжалом. Он не догадывается, что это Мериан. В это время Робин находит свидетеля, который может подтвердить, что Гизборн – предатель. Мериан очень благодарна ему за это, но она теряет сознание от потери крови и находится на грани смерти. Робин спасает её и во время сложнейшей операции они признаются, что любят друг друга. После выздоровления Мериан посещает Гизборна и спрашивает о предательстве. Он не сознаётся. Девушка обязана выйти за него замуж. Во время брачной церемонии слуга Робина Гуда – Мач прибегает в церковь и рассказывает священнику всю правду о Гизборне. Но на этот раз он не отрицает этого и пытается заставить девушку силой выйти за него замуж. Всё-таки она смогла убежать, по дороге в замок её встретил Робин, и они счастливые поехали к себе домой...
-- --

Сезон 1, Тех.данные, Скриншоты, Список серий, МI

Качество: DVDRip
Контейнер: AVI
Видео кодек: XVID
Аудио кодек: MP3
Видео: XVID 624x352, 16:9, 25.00fps 969Kbps, Bits/(Pixel*Frame): 0.176
Аудио: MPEG Audio Layer 3, 2 channels, 48000Hz stereo, 128Kbps (Russian)
Аудио: MPEG Audio Layer 3, 2 channels, 48000Hz stereo, 128Kbps (English)--

Скриншоты

Список серий

«И вы потерпите это?» (англ. Will You Tolerate This?) - Робин Локсли, граф Хантингдон, вместе со своим слугой Мачем возвращается из Святой земли спустя пять лет и понимает, что порядки изменились: в Нотингеме появился новый шериф, а жители деревень умирают от голода и больших поборов. Шериф намеревается казнить четверых людей из Локсли, чтобы посмотреть, как проявит себя вернувшийся лорд. Не в силах это терпеть, Робин призывает людей восстать против шерифа, спасает пленников и скрывается в Шервудском лесу.
«Что, шериф язык отрезал?» (англ. Sheriff Got Your Tongue?) - В Шервудском лесу Робин, Мач и двое спасённых пленников Уилл Скарлет и Алан А Дейл сталкиваются с разбойниками под предводительством Малыша Джона, люди которого хотят отвести Робина Локсли, прозванного Робином Гудом, к шерифу за плату. Но придя в деревню, видят, как шериф, пытаясь узнать, где прячется Робин Гуд, режет людям языки. Чтобы спасти жителей деревни, Робин жертвует собой и сдаётся шерифу. Малыш Джон и Мач объединяют свои отряды, чтобы спасти Робина и начать борьбу против шерифа.
«Кто стрелял в шерифа?» (англ. Who Shot the Sheriff?) - В округе происходит несколько жестоких убийств ни в чем неповинных людей, в которых, как и в покушении на самого Шерифа, обвиняют Робина Гуда. Чтобы вернуть свое честное имя, Робин должен сам поймать настоящего убийцу.
«Гуд-отец» (англ. Parent Hood) - Робин Гуд и его отряд находят в Шервудском лесу брошенного ребенка. Подобрав его, они понимают, что попали в ловушку, подстроенную Шерифом. В результате, Рой, один из людей Робина, оказывается в плену. И теперь перед ним стоит выбор: убить Робина Гуда или наблюдать казнь собственной матери. Этот эпизод - последний с участием Вильяма Бека (Ройстон Вайт)..
«Турецкая хворь» (англ. Turk Flu) - Приближается время ежегодной ярмарки и соревнования лучших местных стрелков. Однако, прежде чем принять участие в турнире Робин Гуд должен спасти рабов, работающих в шахтах Шерифа. В этой серии впервые появляется Анджали Джай (Джаг)..
«Сборщик налогов грядёт» (англ. The Taxman Cometh) - В лесу Робин Гуд останавливает сборщика налогов с сыном, при помощи которого хочет обчистить казну шерифа. Тем временем в замке объявляется монахиня, на которую якобы напали разбойники. Сборщик налогов заманивает разбойников в ловушку, но и сам он оказывается не сборщиком налогов и даже не наёмником, как полагает шериф. Вместе с подельницей, переодетой монахиней, они обворовывают казну шерифа. Сбежав при помощи Уилла, Робин Гуд и его люди ловят воров и забирают награбленное.
«Братья по оружию» (англ. Brothers in Arms) - Алан встречает своего брата Тома, обманщика и вора. Том просит разрешения присоединиться к группе Робин Гуда. Пытаясь доказать, что они чего-то стоят, Том и два его друга предпринимают неудачную вылазку, во время которой их ловит шериф. Гай Гизборн тем временем усомнился в верности Мэриан, потому что серебряное ожерелье, которое он снял с шее деревенской девушки в качестве платы за свадьбу и подарил Мэриан, вновь оказывается у девушки. Робин должен спасти и Тома и Мэриан, но удастся ли ему сделать и то, и другое? Мэриан, "загнанная в угол" Гизборном, соглашается стать его женой в первый день, когда вернётся король.
«Татуировка? Какая татуировка?» (англ. Tattoo? What Tattoo?) - Когда-то в Святой земле сарацины напали на лагерь короля Ричарда. Именно в этом сражении был тяжело ранен Робин, но он успел нанести рану противнику по руке с татуировкой. Именно эту самую татуировку он видит на руке Гая Гизборна, но никто не верит Робину, что он предатель. Во время вылазки в Локсли схвачена Джак, а Робин Гуд поймал Гизборна. Единственный способ спасти друга - обменять пленников. Но как отпустить предателя на свободу?
«Кое-что о верности» (англ. A Thing or Two About Loyalty) - Ученый Ламберт изобретает порох, но он прекрасно понимает, что может произойти, окажись этот порошок в плохих руках, например, такого человека как шериф. Ламберт пытается сохранить свой секрет, однако Шериф сажает ученого в темницу и пытается под пытками заполучить рецепт пороха. Кто же может спасти ученого из темницы и не станет ли сама темница своего рода западней для одного человека?
«Мир? Не будет!» (англ. Peace? Off!) - Однажды Робин спасает жизнь человека во время пожара церкви в Локсли. Однако, спасая его, он невольно запускает в ход цепочку событий, которая может привести к весьма нежелательным последствиям. Все это связано с таинственным сарацином, приехавшим в замок Ноттингема.
«Мертвец идёт» (англ. Dead Man Walking) - Во время сбора налогов схвачен оружейный мастер, помогавший Робину Гуду, и сын Маленького Джона. Малыш Джон, пытаясь их спасти, сам оказывается пленён. Тем временем шериф готовит в замке камеру пыток.
«Возвращение короля» (англ. The Return of the King) - Гисборн объявляет о скором прибытии в Ноттингем вернувшегося из Святой земли короля Ричарда и своей свадьбе с Мэриан. Робин не намерен так просто уступить Гаю свою возлюбленную и находит новые доказательства виновности Гисборна в государственной измене. Тем временем Ночной Дозорный выходит на свое последнее дело.
«Ответ: Нет» (англ. A Clue: No) - Робин Гуд, переживающий боль утраты, и его друзья оказываются в капкане, расставленном Вэйзи и Гисборном. Разбойникам остается надеяться только на чудо, но даже оно не решит всех их проблем. Шериф заранее предвкушает победу, но он и не подозревает, на что способен человек, которого довели до отчаяния.

MediaInfo

Сезон: 1
General
Complete name : E:\Сериалы новые\Робин Гуд\Сезон 1\Robin.Hood.s01.dvdrip.rus.eng.novafilm.tv\Robin.Hood.s01e01.dvdrip.rus.eng.novafilm.tv.avi
Format : AVI
Format/Info : Audio Video Interleave
File size : 394 MiB
Duration : 44mn 44s
Overall bit rate mode : Variable
Overall bit rate : 1 230 Kbps
Writing application : VirtualDubMod 1.5.4.1 (build 2178/release)
Writing library : VirtualDubMod build 2178/release
Video
ID : 0
Format : MPEG-4 Visual
Format profile : Advanced Simple@L5
Format settings, BVOP : 1
Format settings, QPel : No
Format settings, GMC : No warppoints
Format settings, Matrix : Custom
Codec ID : XVID
Codec ID/Hint : XviD
Duration : 44mn 44s
Bit rate : 969 Kbps
Width : 624 pixels
Height : 352 pixels
Display aspect ratio : 16:9
Frame rate : 25.000 fps
Color space : YUV
Chroma subsampling : 4:2:0
Bit depth : 8 bits
Scan type : Progressive
Compression mode : Lossy
Bits/(Pixel*Frame) : 0.176
Stream size : 310 MiB (79%)
Writing library : XviD 1.2.0.dev47 (UTC 2006-11-01)
Audio #1
ID : 1
Format : MPEG Audio
Format version : Version 1
Format profile : Layer 3
Mode : Joint stereo
Codec ID : 55
Codec ID/Hint : MP3
Duration : 44mn 44s
Bit rate mode : Variable
Bit rate : 112 Kbps
Nominal bit rate : 128 Kbps
Channel count : 2 channels
Sampling rate : 48.0 KHz
Compression mode : Lossy
Stream size : 35.7 MiB (9%)
Alignment : Aligned on interleaves
Interleave, duration : 24 ms (0.60 video frame)
Interleave, preload duration : 218 ms
Writing library : LAME3.97
Encoding settings : -m j -V 4 -q 2 -lowpass 17 --abr 128
Language : Russian
Audio #2
ID : 2
Format : MPEG Audio
Format version : Version 1
Format profile : Layer 3
Codec ID : 55
Codec ID/Hint : MP3
Duration : 44mn 44s
Bit rate mode : Variable
Bit rate : 128 Kbps
Minimum bit rate : 96.0 Kbps
Channel count : 2 channels
Sampling rate : 48.0 KHz
Compression mode : Lossy
Stream size : 41.0 MiB (10%)
Alignment : Aligned on interleaves
Interleave, duration : 24 ms (0.60 video frame)
Interleave, preload duration : 498 ms
Writing library : LAME3.97
Encoding settings : -m s -V 4 -q 5 -lowpass 17.5 --vbr-new -b 96

Сезон 2, Тех.данные, Скриншоты, Список серий, МI

Качество: DVDRip
Контейнер: AVI
Видео кодек: XVID
Аудио кодек: MP3
Видео: XVID 640x368, 16:9, 25.00fps 1 003Kbps, Bits/(Pixel*Frame): 0.170
Аудио: MPEG Audio Layer 3, 2 channels, 48000Hz stereo, 128Kbps (Russian)
Аудио: MPEG Audio Layer 3, 2 channels, 48000Hz stereo, 130Kbps (English)--

Скриншоты

Список серий

«Сестринство» (англ. Sisterhood) - В Нотингем прибывает хитроумная и коварная сестра шерифа, а после ещё несколько подозрительных людей в чёрных плащах. Сестра шерифа заманивает Робина в ловушку, где он узнаёт, что все эти люди - Чёрные рыцари, планирующие заговор с целью убийства короля. Чтобы помочь Робину, Мэриан вновь переодевается Ночным Дозорным. Алан тем временем, будучи пойманным Гаем Гисборном, в обмен на деньги и свободу соглашается шпионить за Робином Гудом.
«Болван и чудовище» (англ. The Booby and the Beast) - К шерифу в Нотингем приезжает немецкий граф, страстно любящий азартные игры. Шериф при помощи построенного казино хочет пополнить свою казну его деньгами и потратить их как плату Чёрным рыцарям. Путём угроз шериф заставляет Мэриан обхаживать графа. Робин Гуд в это время пытается проникнуть в абсолютно неприступную сокровищницу, в чём помогает ему слепой учитель Уилла. Чтобы обмануть шерифа и оставить его без денег, Робин объединяется с графом.
«Детство» (англ. Childhood) - Четверо детей, игравших в лесу в Робин Гуда, оказываются в смертельной опасности, увидев, как Гай Гизборн испытывает новую броню. Дэниэл сумел спрятаться в лесу, где его находит его герой Робин Гуд.
«Ангел смерти» (англ. The Angel of Death) - Целую улицу Нотингема поразила непонятная хворь, и теперь шериф перекрыл её, запрещая помогать умирающим. Робин Гуд и его люди всеми силами пытаются найти лекарство, а Уилл тем временем решил убить шерифа, из-за которого погиб его отец. Но, если шериф умрёт, принц Джон сравняет Нотингем с землёй.
«Увиливание» (англ. Ducking and Diving) - В Нотингем пребывает человек, задумавший предать короля. Робин Гуд понимает, что один из его людей предал его, ведь Гизборн всегда на несколько шагов впереди него. Теперь ему в одиночку надо не допустить разглашения так важных шерифу сведений и найти предателя, ведь он больше не может доверять команде.
«За Англию…!» (англ. For England…!) - В Нотингем пребывают чёрные рыцари, чтобы подписать договор, по которому обязуются свергнуть короля Ричарда. Но лорд Уинчестер (старый друг сэра Эдварда и один из чёрных рыцарей) обещает оказать помощь Робину Гуду. Только что им движет: желание спасти короля или месть за отнятую любовь? И чтобы защитить Англию даже Робину придётся сделать выбор: жить или умереть.
«Покажи мне деньги» (англ. Show Me the Money) - В лесу появляется бедный рыцарь Джон Йорк, пытающийся выкупить свою возлюбленную у шерифа. Робин Гуд отдаёт все награбленные деньги, потому что только он может понять влюблённого. А Алан тем временем раскрывает секреты Робина шерифу и Гизборну и подаёт идею, как защитить казну от нападок разбойников. Доходит до того, что он собирается отвести Гизборна в лагерь бывших друзей. Робину приходиться решать несколько задач: спасти невесту Джона, найти договор чёрных рыцарей, вернуть свои деньги и обезвредить Алана. Тем временем сэр Эдвард решает вернуть уважение дочери, а Гай Гизборн понимает, что чувства к Мэриан вспыхнули с новой силой. Последнее появление сэра Эдварда.
«Убрать Картера!» (англ. Get Carter!) - У Робина Гуда появляется новый враг, с лёгкостью уничтожающий врагов. Ради мести он готов на всё, поэтому Робин пытается узнать, что же довело этого бойца до такого отчаяния, что он связался с шерифом. Тем временем Мэриан, всё ещё переживающая смерть отца, выходит из-под контроля, считая, что в одиночку она может сделать больше, чем вся команда разбойников.
«Кольцо Ларднера» (англ. Lardner's Ring) - Воин со Святой земли привёз письмо от короля, который ещё не знает, что творится в Англии. Умирая, воин успевает произнести только: "Ларднер". В это время шут на дне рождении Гизборна говорит шерифу, что их погубит кольцо Ларднера. Поиски разгадки заводят Робина и Мэриан в ловушку. По просьбам Мэриан Робин выдаёт её за заложницу, а сам, надев ей на палец обручальное кольцо, скрывается.
«Бродяга» (англ. Walkabout) - В Нотингеме переполох: пропал шериф, и каждый поднят на ноги для его поисков. Ведь, если к закату шериф не будет найден, армия принца Джона уничтожит город и все окрестности. Гай Гизборн понимает, что в этом деле ему может помочь только Робин Гуд. Тем временем шериф, случайно оказавшийся в лесу и оставшийся никем не узнанный, придумывает план проникновения в логово разбойников, чтобы найти там договор с Чёрными рыцарями.
«Сокровище нации» (англ. Treasure of the Nation) - Из Святой земли по поручению короля Ричарда прибывают крестоносцы - друзья Робина. Они вручают ему карту. По словам короля только Робин может понять, где искать "Сокровище нации". Но шерифу тоже не терпится заполучить это сокровище. Тем временем Гай Гизборн узнаёт, что Мэриан является Ночным Дозорным. Перед ним встаёт нелёгкий выбор: предать шерифа и отпустить своего заклятого врага или спасти любимую от петли.
«Хороший день, чтобы умереть» (англ. A Good Day to Die) - У Робина Гуда день рождения, чем не преминул воспользоваться шериф. В итоге Робин и его друзья оказались в амбаре, окружённом сотней наёмников. Понимая, что жить им осталось недолго, они решают поговорить по душам и высказать всё, что наболело. Тем временем шериф и Гизборн, прихватив Мэриан, едут на Святую землю, чтобы убить короля. Теперь жизнь друзей и судьба Англии зависит от Алана. Сможет ли он сделать правильный выбор?
«Мы — Робин Гуд!» (англ. We Are Robin Hood!) - Узнав, что Робин Гуд жив, шериф обманом навлекает на него гнев короля, а Мэриан убеждается, что в Гизборне не осталось ничего хорошего. В итоге Робин, Мэриан и их друзья оставлены в пустыне умирать. На помощь им приходит старый друг Картер. Теперь задача Робина спасти короля, но он ещё не знает, что скоро его мир перевернётся. Последнее появление Уилла и Джаг, Мериан.

MediaInfo

General
Complete name : E:\Сериалы новые\Робин Гуд\Сезон 2\robin_hood.s02.dvdrip.rus.eng.novafilm.tv\robin_hood.s02e01.dvdrip.rus.eng.novafilm.tv.avi
Format : AVI
Format/Info : Audio Video Interleave
File size : 391 MiB
Duration : 42mn 41s
Overall bit rate mode : Variable
Overall bit rate : 1 279 Kbps
Writing application : VirtualDubMod 1.5.10.2 (build 2542/release)
Writing library : VirtualDubMod build 2542/release
Video
ID : 0
Format : MPEG-4 Visual
Format profile : Advanced Simple@L5
Format settings, BVOP : 1
Format settings, QPel : No
Format settings, GMC : No warppoints
Format settings, Matrix : Custom
Codec ID : XVID
Codec ID/Hint : XviD
Duration : 42mn 41s
Bit rate : 1 003 Kbps
Width : 640 pixels
Height : 368 pixels
Display aspect ratio : 1.739
Frame rate : 25.000 fps
Color space : YUV
Chroma subsampling : 4:2:0
Bit depth : 8 bits
Scan type : Progressive
Compression mode : Lossy
Bits/(Pixel*Frame) : 0.170
Stream size : 306 MiB (78%)
Writing library : XviD 1.2.0.dev47 (UTC 2006-11-01)
Audio #1
ID : 1
Format : MPEG Audio
Format version : Version 1
Format profile : Layer 3
Mode : Joint stereo
Mode extension : MS Stereo
Codec ID : 55
Codec ID/Hint : MP3
Duration : 42mn 40s
Bit rate mode : Constant
Bit rate : 128 Kbps
Channel count : 2 channels
Sampling rate : 48.0 KHz
Compression mode : Lossy
Stream size : 39.1 MiB (10%)
Alignment : Aligned on interleaves
Interleave, duration : 40 ms (1.00 video frame)
Interleave, preload duration : 504 ms
Audio #2
ID : 2
Format : MPEG Audio
Format version : Version 1
Format profile : Layer 3
Mode : Joint stereo
Mode extension : MS Stereo
Codec ID : 55
Codec ID/Hint : MP3
Duration : 42mn 40s
Bit rate mode : Variable
Bit rate : 130 Kbps
Nominal bit rate : 144 Kbps
Channel count : 2 channels
Sampling rate : 48.0 KHz
Compression mode : Lossy
Stream size : 39.8 MiB (10%)
Alignment : Aligned on interleaves
Interleave, duration : 24 ms (0.60 video frame)
Interleave, preload duration : 547 ms
Writing library : LAME3.97
Encoding settings : -m j -V 4 -q 2 -lowpass 17.5 --abr 144

Сезон 3, Тех.данные, Скриншоты, Список серий, МI

Качество: DVDRip
Контейнер: AVI
Видео кодек: XVID
Аудио кодек: MP3
Видео: XVID 624 x352, 16:9, 25.00fps 961Kbps, Bits/(Pixel*Frame): 0.176
Аудио: MPEG Audio Layer 3, 2 channels, 48000Hz stereo, 128Kbps (Russian)
Аудио: MPEG Audio Layer 3, 2 channels, 48000Hz stereo, 128Kbps (English)--

Список серий

«Полное затмение» (англ. Total Eclipse) — когда Робин возвращается в Англию, чтобы отомстить Гисборну за убийство Мэриан, между ними завязывается эпическое сражение, в котором каждый жаждет смерти другого. Боевой монах по имени брат Тук прибывает в Ноттингем в поисках Робина Гуда, считая, что он является единственным человеком, способным объединить английский народ и уничтожить тираническое правление шерифа, Гисборна и принца Джона. Но сперва он должен убедить убитого горем Робина, что за Англию стоит бороться. Первое появление Тука.
«Причина и следствие» (англ. Cause and Effect) — шериф продаёт местных крестьян ирландским воинам, которые собирают армию, но когда сам Робин попадает в плен, удастся ли ему вовремя сбежать, чтобы спасти «призывников»? Разбойникам вызывается помочь девушка из Локсли по имени Кейт. Но её попытки спасти Робина и её брата имеют трагические последствия. Тем временем, шериф передаёт Гисборна в руки принца Джона, понимая что его, возможно, ожидает казнь.
«Трудности перевода» (англ. Lost in Translation) — шериф решает обернуть общественность против разбойников Робина, заставив аббата объявить их еретиками. Оказывается, шериф узнал, что аббат тайно занимается переводом латинской Библии на английский язык, что само является ересью в глазах Церкви, и шантажирует его. Попытки Тука очистить имя Робина приводят к его пленению. Смогут ли разбойники спасти своего товарища вовремя,избежав при этом собственной смертной казни?
«Отцовские грехи» (англ. Sins of the Father) — в городе появляется злобный сборщик налогов по имени «Беспощадный» Руфус, горящий жаждой мести. Когда он похищает Аллана и Кейт, Робин отвечает похищением его сына. Робин и его банда затем пытаются, как можно быстрее найти тайное убежище Руфуса, прежде чем тот убьёт их товарищей.
«Начинаем игры» (англ. Let the Games Commence) — Гисборн возвращается, и не один. С собой он привёл элитных гвардейцев принца Джона и загадочное оружие. На этот раз, он намерен поймать и уничтожить Гуда любой ценой. Пока разбойники убегают от гвардейцев, Маленький Джон отделяется от них и попадает в гладиаторский цирк, в котором проигрыш — смерть. Тем временем, Робин ловит в Шервудском лесу девушку, которая оказывается сестрой Гисборна, Изабеллой.
«Вы меня любите?» (англ. Do You Love Me?) — принц Джон наносит долгожданный визит в Ноттингем. Он жаждет как можно быстрее получить титул короля. Гисборн и шериф получают королевский приказ, который означает конец для одного из них. Тем временем, Робину приходится спасать раненную Кейт и Локсли от уничтожения.
«Слишком жарко» (англ. Too Hot to Handle) — на Ноттингемшир нападает засуха. Когда принц Джон перекрывает все местные колодцы, разбойникам приходится идти на крайние меры, чтобы спасти крестьян, страдающих от жажды. Тайные отношения Робина и Изабеллы выходят на свет, и Гисборн получает приказ избавиться от них. Изабеллы предлагает Робину уехать из Ноттингемшира и начать новую жизнь вместе. Перед Робином стоит нелёгкий выбор, которому он говорит «нет».
«Король мёртв, Да здравствует король…» (англ. The King Is Dead, Long Live the King…) — королевский хранитель ключей и бывший наставник Робина лорд Шеридан объявляет о гибели короля Ричарда в бою. Принц Джон заставляет архиепископа в скором порядке короновать его в Ноттингеме. Сможет ли Робин разгадать эту тайну до того как принц Джон станет королём? Последнее появление принца Джона.
«Опасная сделка» (англ. A Dangerous Deal) — Гисборн ожидает своей казни в темнице Ноттингема, где он встречает заключённую девушку, которая заставляет его многое переосмыслить. Робин пытается договориться с шерифом Изабеллой, но его планы нарушает неожиданный гость из её прошлого, ведомый жаждой мести.
«Плохая кровь» (англ. Bad Blood) — загадочная фигура заставляет Робина и Гисборна выслушать историю об их прошлом. Раскрывается правда об их родителях, и великое открытие шокирует их до глубины души. Когда этот человек решает показать им своё лицо, то Робин и Гисборн понимают, что их жизни в корне изменятся.
«Враг моего врага» (англ. The Enemy of My Enemy) — разбойники в шоке, когда Робин объявляет о том, что Гисборн присоединяется к их борьбе с Изабеллой, но выживет ли это шаткое перемирие между заклятыми врагами? Первое появление Арчера.
«То за что стоит бороться (Часть 1)» (англ. Something Worth Fighting For, Part 1) — Изабелла приказывает своим солдатам схватить всех мужчин Локсли и послать их принцу Джону. Чтобы остановить её, разбойникам придётся пойти на немыслимое — захват Ноттингема. К сожалению, махинации Изабеллы заставляют разбойников потерять веру друг в друга, как раз когда им больше всего необходимо единство. Также, в тени прячется старый враг, ожидая своего часа расплаты.
«То за что стоит бороться (Часть 2)» (англ. Something Worth Fighting For, Part 2) — в Ноттингеме разгорается эпическое сражение, когда Вэйзи с армией принца пытается взять Ноттингем у разбойников. Робин и его банда яростно защищают замок, но армия шерифа заставляет их отступить. Выживет ли кто-нибудь в этой адской битве?

MediaInfo

General
Complete name : E:\Сериалы новые\Робин Гуд\Сезон 3\Robin.Hood.3x01.Total.Eclipse.DVDRip.Rus.Eng.avi
Format : AVI
Format/Info : Audio Video Interleave
File size : 390 MiB
Duration : 44mn 2s
Overall bit rate mode : Variable
Overall bit rate : 1 238 Kbps
Writing application : VirtualDubMod 1.5.10.2 (build 2540/release)
Writing library : VirtualDubMod build 2540/release
Video
ID : 0
Format : MPEG-4 Visual
Format profile : Advanced Simple@L5
Format settings, BVOP : 2
Format settings, QPel : No
Format settings, GMC : No warppoints
Format settings, Matrix : Default (H.263)
Muxing mode : Packed bitstream
Codec ID : XVID
Codec ID/Hint : XviD
Duration : 44mn 2s
Bit rate : 961 Kbps
Width : 624 pixels
Height : 352 pixels
Display aspect ratio : 16:9
Frame rate : 25.000 fps
Color space : YUV
Chroma subsampling : 4:2:0
Bit depth : 8 bits
Scan type : Progressive
Compression mode : Lossy
Bits/(Pixel*Frame) : 0.175
Stream size : 303 MiB (78%)
Writing library : XviD 1.2.1 (UTC 2008-12-04)
Audio #1
ID : 1
Format : MPEG Audio
Format version : Version 1
Format profile : Layer 3
Mode : Joint stereo
Mode extension : MS Stereo
Codec ID : 55
Codec ID/Hint : MP3
Duration : 43mn 53s
Bit rate mode : Constant
Bit rate : 128 Kbps
Channel count : 2 channels
Sampling rate : 48.0 KHz
Compression mode : Lossy
Stream size : 40.2 MiB (10%)
Alignment : Aligned on interleaves
Interleave, duration : 40 ms (1.00 video frame)
Interleave, preload duration : 504 ms
Audio #2
ID : 2
Format : MPEG Audio
Format version : Version 1
Format profile : Layer 3
Mode : Joint stereo
Mode extension : MS Stereo
Codec ID : 55
Codec ID/Hint : MP3
Duration : 44mn 2s
Bit rate mode : Variable
Bit rate : 128 Kbps
Channel count : 2 channels
Sampling rate : 48.0 KHz
Compression mode : Lossy
Stream size : 41.5 MiB (11%)
Alignment : Aligned on interleaves
Interleave, duration : 24 ms (0.60 video frame)
Interleave, preload duration : 471 ms
Writing library : LAME3.90.
Encoding settings : -m j -V 4 -q 2 -lowpass 17.6 --abr 128

_________________
[Торрент-статистика]
[Профиль]  [ЛС] 
Показать сообщения:    
Ответить на тему

Текущее время: Сегодня 22:16

Часовой пояс: GMT + 4



Вы не можете начинать темы
Вы не можете отвечать на сообщения
Вы не можете редактировать свои сообщения
Вы не можете удалять свои сообщения
Вы не можете голосовать в опросах
Вы не можете прикреплять файлы к сообщениям
Вы не можете скачивать файлы