Баффи - Истребительница Вампиров (1-7 сезоны/Серия 1-144 из 144) / Buffy The Vampire Slayer [Ник Марк, Майкл Ланж, Дуглас Петри, Дэниэл Эттиэс, 1997-2003 гг., мистическая драма / ужасы / боевик с элементами комедии DVDRip]

Ответить на тему
 
Автор
Сообщение

awk05 ®

Пол:

Стаж: 4 года 5 месяцев

Сообщений: 1352

Репутация: 275 [+] [-]

Откуда: Западная Украина Ривне

Пост 28-Дек-2013 17:08

[Цитировать] 

--Баффи - Истребительница вампиров / Buffy The Vampire Slayer-- Год выпуска: 1997-2003
Страна: США
Жанр: мистическая драма / ужасы / боевик с элементами комедии
Сезон/Серия: Сезон:1-7 /Серия 1-144 из 144
Продолжительность: 144 х ~00:42:00
Перевод: Профессиональный (многоголосый, закадровый)
Русские субтитры: нет--Режиссер: Ник Марк, Майкл Ланж, Дуглас Петри, Дэниэл Эттиэс, Джосс Уидон, Дэвид Гринуолт, Эллен С. Прессман, Джеймс Уитмор-мл., Дэвид Соломон, Брюс Сет Грин, Джеймс А. Контнер, Джон Т. Кречмер, Дэвид Семел, Дэвид Гроссман, Майкл Гершман--В ролях: Джеймс Марстерс, Сара Мишель Геллар, Сет Грин, Харизма Карпентер, Дэвид Бореаназ, Эмбер Бенсон, Марк Блукас, Энтони Хэд, Эмма Колфилд, Мишель Трахтенберг, Том Ленк, Николас Брендон, Кристин Сазерлэнд, Элисон Хэннигэн, Дэнни Стронг--Описание: 16-летняя девушка Баффи Саммерс вместе со своей матерью Джойс переезжает в калифорнийский город Саннидэйл из Лос-Анджелеса, в надежде начать новую жизнь и избавиться от кошмаров прошлого. Баффи одна из тех, кто знает страшную тайну нашего мира - мира, в котором существуют вампиры и демоны, стремящиеся захватить власть. И только Баффи Саммерс может остановить их. Она - Истребительница вампиров, призванная защищать Землю от сил Зла. Однако, девушка испытывает внутренний конфликт - она хочет жить жизнью обыкновенной школьницы, не заботясь о судьбе всего человечества. В новой школе у нее бысто появляются друзья, скромница Уиллоу и весельчак Ксандер, но после встречи с библиотекарем школы Рупертом Джайлзом, Баффи понимает что прошлое всё же настигло её.-- --

Сезон 1, Описание, Тех.данные, Скриншоты

--Баффи Саммерс с мамой Джойс Саммерс перебирается в город Саннидэйл, где она надеется избежать своих обязанностей как Истребительница. Её планы осложняет Руперт Джайлз, её новый Наблюдатель, напоминающий о неизбежном присутствии Зла. Кроме того, мужчина работает школьным библиотекарем, тем самым большую часть времени находясь рядом с Баффи. Саннидэйлская школа находится у Адских уст — портала, который привлекает сверхъестественные феномены к городу.
Баффи решает больше времени уделять своей нормальной жизни: она подружилась с отличницей Уиллоу Розенберг, увлекающейся магией и всем необычным, и двоечником Ксандером Харрисом — вместе они будут помогать Баффи бороться с силами Зла, но прежде всего они должны предотвратить открытие Адских врат древним и особо опасным вампиром — Мастером, который занят поисками Помазанника — своего посредника, который должен стать ключевой фигурой в грядущем Конце света.--Качество: DVDRip
Формат: AVI
Видео кодек: DivX
Аудио кодек: MP3
Видео: 1 серия 576x432 (1.33:1), 23.976 fps, DivX Codec 6.8 ~991 kbps avg, 0.17 bit/pixel
далее 576x432 (1.33:1), 23.976 fps, XviD MPEG-4 ~946 kbps avg, 0.16 bit/pixel (почему так - спросите у Новы)
Аудио Rus: 48 kHz, MPEG Layer 3, 2 ch, ~128.00 kbps avg
Аудио Eng: 48 kHz, MPEG Layer 3, 2 ch, ~124.62 kbps avg
Перевод: закадровый многоголосый (ОРТ)

В Ролях

Основной состав
Сара Мишель Геллар — Баффи Энн Саммерс
Николас Брендон — Александер «Ксандер» Харрис
Элисон Ханниган — Уиллоу Розенберг
Каризма Карпентер — Корделия Чейз
Энтони Стюарт Хэд — Руперт Джайлз
Приглашённые звёзды
Дэвид Борианаз — Энжел (7 эпизодов)
Сазерленд, Кристин — Джойс Саммерс (7 эпизодов)
Марк Меткалф — Мастер (6 эпизодов)
Кен Лрёнер — Директор Флути (4 эпизода)
Эндрю Джей Ферхланд — Помазанник (4 эпизода)
Джули Бенц — Дарла (3 эпизода)
Робиа ЛаМорте — Дженнни Кэлендар (2 эпизода)
Армин Шимермен — Директор Снайдер (2 эпизода)
Эрик Бальфур — Джесси МакНелли (2 эпизода)
Мерседес МакНаб — Хармони Кендалл (2 эпизода)
Брайан Томпсон — Люк (2 эпизода)
Элизабет Энн Аллен — Эми Мэдисон (1 эпизод)
Дин Батлер — Хэнк Саммерс (1 эпизода)

Скриншоты

Список серий

0 «Unaired Pilot» «Невыпущенный пилот»
1 «Welcome To The Hellmouth (Pilot)» «Добро пожаловать в Адскую Пасть»
2 «The Harvest» «Жатва»
3 «The Witch» «Колдунья»
4 «Teacher's Pet» «Любимчик учителя»
5 «Never Kill A Boy On First Date» «Никогда не убивай парня на первом свидании»
6 «The Pack» «Стая»
7 «Angel» «Ангел»
8 «I, Robot… You, Jane» «Я — робот, ты — Джейн»
9 «The Puppet Show» «Кукольное представление»]
10 «Nightmares» «Ночные кошмары»
11 «Invisible Girl (Out Of Mind, Out Of Sight)» «Девочка-невидимка (Чокнутая невидимка)»
12 «The Prophecy Girl» «Девушка из пророчества»

MediaInfo

General
Complete name : E:\Сериалы новые\Buffy All Seasons\SE01\buffy.s01e01.dvdrip.rus.eng.novafilm.tv.avi
Format : AVI
Format/Info : Audio Video Interleave
File size : 391 MiB
Duration : 43mn 15s
Overall bit rate mode : Variable
Overall bit rate : 1 263 Kbps
Writing application : VirtualDubMod 1.5.10.2 (build 2542/release)
Writing library : VirtualDubMod build 2542/release
Video
ID : 0
Format : MPEG-4 Visual
Format settings, BVOP : 1
Format settings, QPel : No
Format settings, GMC : No warppoints
Format settings, Matrix : Default (H.263)
Muxing mode : Packed bitstream
Codec ID : DX50
Codec ID/Hint : DivX 5
Duration : 43mn 15s
Bit rate : 993 Kbps
Width : 576 pixels
Height : 432 pixels
Display aspect ratio : 1.379
Original display aspect ratio : 4:3
Frame rate : 23.976 fps
Color space : YUV
Chroma subsampling : 4:2:0
Bit depth : 8 bits
Scan type : Progressive
Compression mode : Lossy
Bits/(Pixel*Frame) : 0.167
Stream size : 307 MiB (79%)
Writing library : DivX 6.8.0 (UTC 2007-12-04)
Audio #1
ID : 1
Format : MPEG Audio
Format version : Version 1
Format profile : Layer 3
Mode : Joint stereo
Mode extension : MS Stereo
Codec ID : 55
Codec ID/Hint : MP3
Duration : 43mn 15s
Bit rate mode : Constant
Bit rate : 128 Kbps
Channel count : 2 channels
Sampling rate : 48.0 KHz
Compression mode : Lossy
Stream size : 39.6 MiB (10%)
Alignment : Aligned on interleaves
Interleave, duration : 42 ms (1.00 video frame)
Interleave, preload duration : 504 ms
Audio #2
ID : 2
Format : MPEG Audio
Format version : Version 1
Format profile : Layer 3
Mode : Joint stereo
Mode extension : MS Stereo
Codec ID : 55
Codec ID/Hint : MP3
Duration : 43mn 15s
Bit rate mode : Variable
Bit rate : 125 Kbps
Channel count : 2 channels
Sampling rate : 48.0 KHz
Compression mode : Lossy
Stream size : 38.6 MiB (10%)
Alignment : Aligned on interleaves
Interleave, duration : 24 ms (0.58 video frame)
Interleave, preload duration : 486 ms

Сезон 2, Описание, Тех.данные, Скриншоты

--В Саннидэйл приезжают Спайк и Друзилла — два древних вампира, давние друзья Энжела, которые терроризировали всю Европу несколько веков. Кроме того, в городе объявляется новая Истребительница по имени Кендра, которую вызвали из-за клинической смерти Баффи после встречи с Мастером. Энжел старается помочь Баффи в борьбе с нечистью, одновременно сближаясь и отдаляясь от девушки — очевидно, их влечёт друг к другу, но прошлое вампира не позволяет ему быть до конца честным с Баффи, что очень сильно огорчает девушку, всё больше влюбляющуюся в Энжела.
Между тем, у Корделии и Ксандера начинается роман, который они долго скрывают от всех: Корделия стыдится Ксандера перед своими популярными подругами, а Ксандер боится, что Баффи и Уиллоу не смогут понять его. Уиллоу тоже находит любимого, старшеклассника Оза, гитариста группы Динго съели мою малышку, который, как выясняется позже, оказывается оборотнем. Ребята каждое полнолуние запирают его в библиотеке, тем самым избегая возможных жертв.
Эмоциональная близость между Баффи и Энжелом достигается своего пика, как Баффи проводит ночь с Энжелом, однако девушка не догадывается об опасности, которая теперь грозит ей и всему миру: согласно цыганскому проклятию, лишь момент истинного счастья может избавить вампира от души и вернуть его тёмную сторону к жизни — кровожадного демона Ангелуса, стремящегося уничтожить свет.
Энжел убивает возлюбленную Джайлза, учительницу Дженни Календар, собиравшуюся вернуть душу Энжелу с помощью цыганского обряда. Вампир нападает на друзей Баффи и даже пытает Джайлза, а Друзилла убивает Кендру. Тогда Баффи понимает, что должна убить Энжела, и для сражения она направляется в особняк вампира, где тот всё подготовил для обряда, начинающего Апокалипсис. Тем временем, Уиллоу производит свой обряд, благодаря которому ей удаётся вернуть душу Энжелу. Однако врата в демоническое измерение уже открыты, и единственный способ закрыть их — пролить кровь того, кто пустил демонов в наш мир. Со слезами на глазах Баффи убивает очнувшегося Энжела и отправляет любимого в Ад, остановив тем самым наступающий Конец света. В это же время Баффи выгоняют из школы, и девушка покидает Саннидэйл.--Качество: DVDRip
Формат: AVI
Видео кодек: XviD
Аудио кодек: MP3
Видео: XviD 576x432, 23.976 fps, ~1000 kbps
Аудио Rus: 48 kHz, MPEG Layer 3, stereo, 128.00 kbps
Аудио Eng: 48 kHz, MPEG Layer 3, stereo, ~130.00 kbps

В Ролях

Основной состав
Сара Мишель Геллар — Баффи Энн Саммерс
Николас Брендон — Александер «Ксандер» Харрис
Элисон Ханниган — Уиллоу Розенберг
Каризма Карпентер — Корделия Чейз
Энтони Стюарт Хэд — Руперт Джайлз
Дэвид Борианаз — Энжел/Энджелас
Приглашённые звёзды
Джеймс Марстерс — Спайк (12 эпизодов)
Джульетт Ландау — Друсилла (12 эпизодов)
Кристин Сазерленд — Джойс Саммерс (12 эпизодов)
Робиа ЛаМорте — Дженнни Кэлендар (11 эпизодов)
Сет Грин — Оз (10 эпизодов)
Армин Шимерман — Директор Снайдер (9 эпизодов)
Дэнни Стронг — Джонатан Левинсон (7 эпизодов)
Бьянка Лоусон — Кендра (4 эпизода)
Робин Сэкс — Итан Рэйн (2 эпизода)
Макс Перлич — Уистлер (2 эпизода)
Брайан Томпсон — Судья (2 эпизода)
Винсент Скьявелли — Дядя Эниос (2 эпизода)
Ларри Бэгби — Ларри Блэйсделл (2 эпизода)
Эндрю Джей Фирхланд — Помазанник (2 эпизода)
Саверио Герра — Стукач Вилли (2 эпизода)
Джейсон Холл — Дэвин МакЛиш (2 эпизода)
Эрик Сайт — Далтон (2 эпизода)
Джулия Ли — Шантарелль (1 эпизод)
Элизабэт Энн Аллен — Эми Мэдисон (1 эпизод)
Джули Бенз — Дарла (1 эпизод)
Дин Батлер — Хэнк Саммерс (1 эпизод)
Марк Меткалф — Мастер (1 эпизод)
Мерседес МакНаб — Хармони Кендэлл (1 эпизод)
Джон Риттер — Тэд (1 эпизод)
Джейсон Бер — Билли Фордхэм (1 эпизод)
Грег Воган — Ричард Андерсон (1 эпизод)
Уилли Гарсон — Охранник в больнице (1 эпизод)
Уэнтворт Миллер — Гейдж Петронци (1 эпизод)

Скриншоты

Список серий

2x01 Когда она была плохой / When She Was Bad
2x02 Требуется сборка / Some Assembly Required
2x03 Трудности учёбы / School Hard
2x04 Девушка-мумия инков / Inca Mummy Girl
2x05 Парень-рептилия / Reptile Boy
2x06 Хэллоуин / Halloween
2x07 Солги мне / Lie To Me
2x08 Тёмное прошлое / The Dark Age
2x09 Каков мой путь? Часть 1 / What’s My Line? Part 1
2x10 Каков мой путь? Часть 2 / What’s My Line? Part 2
2x11 Тэд / Ted
2x12 Плохие яйца / Bad Eggs
2x13 Сюрприз / Surprise
2x14 Невинность / Innocence
2x15 Фазы / Phases
2x16 Околдованные, обеспокоенные и изумлённые /Bewitched, Bothered and Bewildered
2x17 Страсть / Passion
2x18 Убитые Смертью / Killed By Death
2x19 Я вижу только тебя / I Only Have Eyes For You
2x20 На рыбалку! / Go Fish
2x21 Становление, часть 1 / Becoming, Part 1
2x22 Становление, часть 2 / Becoming, Part 2

MediaInfo

General
Complete name : E:\Сериалы новые\Buffy All Seasons\SE02\buffy.s02e01.dvdrip.rus.eng.novafilm.tv.avi
Format : AVI
Format/Info : Audio Video Interleave
File size : 395 MiB
Duration : 45mn 24s
Overall bit rate mode : Variable
Overall bit rate : 1 217 Kbps
Writing application : VirtualDubMod 1.5.10.2 (build 2542/release)
Writing library : VirtualDubMod build 2542/release
Video
ID : 0
Format : MPEG-4 Visual
Format profile : Advanced Simple@L5
Format settings, BVOP : 2
Format settings, QPel : No
Format settings, GMC : No warppoints
Format settings, Matrix : Default (H.263)
Muxing mode : Packed bitstream
Codec ID : XVID
Codec ID/Hint : XviD
Duration : 45mn 24s
Bit rate : 940 Kbps
Width : 576 pixels
Height : 432 pixels
Display aspect ratio : 1.379
Original display aspect ratio : 4:3
Frame rate : 23.976 fps
Color space : YUV
Chroma subsampling : 4:2:0
Bit depth : 8 bits
Scan type : Progressive
Compression mode : Lossy
Bits/(Pixel*Frame) : 0.158
Stream size : 305 MiB (77%)
Writing library : XviD 1.1.2 (UTC 2006-11-01)
Audio #1
ID : 1
Format : MPEG Audio
Format version : Version 1
Format profile : Layer 3
Mode : Joint stereo
Mode extension : MS Stereo
Codec ID : 55
Codec ID/Hint : MP3
Duration : 45mn 24s
Bit rate mode : Constant
Bit rate : 128 Kbps
Channel count : 2 channels
Sampling rate : 48.0 KHz
Compression mode : Lossy
Stream size : 41.6 MiB (11%)
Alignment : Aligned on interleaves
Interleave, duration : 42 ms (1.00 video frame)
Interleave, preload duration : 504 ms
Audio #2
ID : 2
Format : MPEG Audio
Format version : Version 1
Format profile : Layer 3
Mode : Joint stereo
Codec ID : 55
Codec ID/Hint : MP3
Duration : 45mn 24s
Bit rate mode : Variable
Bit rate : 128 Kbps
Channel count : 2 channels
Sampling rate : 48.0 KHz
Compression mode : Lossy
Stream size : 42.6 MiB (11%)
Alignment : Aligned on interleaves
Interleave, duration : 24 ms (0.58 video frame)
Interleave, preload duration : 140 ms
Writing library : LAME3.92
Encoding settings : -m j -V 4 -q 2 -lowpass 17.5 --abr 128

Сезон 3, Описание, Тех.данные, Скриншоты

--Переживая потерю любимого, Баффи полностью посвящает себя истреблению нечисти. Пока её не было в Саннидейле, друзья «заботились» о вампирах, и возврату Баффи не особо обрадовались, хотя и устроили вечеринку в её доме по этому поводу. Мама Баффи и Ксандер заявили, что она поступила эгоистично, резко уехав из города, никому не сказав об этом. Но позже все помирились, а директор Снайдер зачислил Баффи в выпускной класс, после того как Джайлз пригрозил ему. Кажется, всё наладилось…
Но каково же было удивление Баффи, когда в городе появляется ещё одна Истребительница по имени Фэйт. Девушка быстро стала своей в компании, но вскоре Баффи понимает, что для Фэйт границ между убийством вампира и человека не существует, что её жажда убивать — это нечто большее, чем просто выполнение обязанностей Истребительницы. У зловещего мэра Уилкинса III есть свои планы насчёт выпуска 1999 года. Он желает покорить мир и переродиться в могущественного демона.
В это время из ада возвращается Ангел, который похож на зверя и не в состоянии даже разговаривать. Позже Баффи помогает ему обрести себя, и они продолжают свой незаконченный роман. Баффи не рассказала никому о его возвращении, поэтому узнав об этом, друзья рассердились на неё, в особенности Ксандер и Джайлз, всё ещё тоскующий по погибшей Дженни. Ксандер рассказывает об этом Фэйт, и они вдвоём решают убить Ангела Энжела, к тому же считая, что он напал на Джайлза и хотел завладеть мистической перчаткой. Однако позже становится ясно, что эти события являются частью плана лженаблюдательницы, прибывшей из Англии, чтобы курировать Фэйт. Баффи не позволила Фэйт убить Ангела — в ходе борьбы всё прояснилось, и между друзьями вновь воцарился мир.
Между тем, в Саннидейл вновь возвращается Спайк, которого бросила Друзилла, и он хочет вернуть её любыми способами. Он пытается заставить Уиллоу сварить для него приворотное зелье, но нужны ингредиенты. Спайк похищает Уиллоу и Ксандера и запирает на фабрике. А когда Корделия и Оз находят их, то застают целующимися. Это стало концом для отношения Ксандера и Корди. Но Оз через некоторое время всё же нашёл в себе силы простить Уиллоу. Спайк вновь покидает город с надеждой вернуть Дру. Терзаемая болью измены, Корделия знакомится с Аньянкой — демоном возмездия, которая выполняет её желание: чтобы Баффи не появилась в Саннидейле. Всё это привело к ужасным последствиям новой реальности, где Уиллои и Ксандер — злобные вампиры, Корделия погибает, а жители города боятся заката. Джайлз уничтожает амулет Аньянки, чем возвращает жизнь в обычное русло
Ксандер осознаёт, что от него мало толку в компании Истребительницы и её друзей, каждый из которых обладает какими-то способностями, кроме него, поэтому он решился на парочку смелых поступков, вскоре поняв, что главная его проблема — склонность к болтовне. Юноша пытается стать более серьёзным и смелым, у него это хорошо получалось. Уиллоу в это время, испытывая недостаток внимания со стороны Баффи, которая всё своё время проводит с Фэйт, начала осваивать чёрную магию.
Баффи и Фэйт вместе отдыхают и вместе дежурят, уничтожая вампиров и остальную нечисть. Но однажды Фэйт случайно убила человека. Друзья пытались помочь ей, поговорить об этом, но поняли, что Фэйт всё равно. Убив человека, она переходит на сторону зловещего мэра и работает двойным агентом против Баффи, которая даже и не подозревает об этом. Джайлз не проходит Экзамен наблюдателей, так как он слишком близок со своей подопечной, и в Саннидейл присылают нового Наблюдателя — молодого и неопытного Уэсли Уиндам-Прайса для Баффи и Фэйт. Вскоре у него завязывается роман с Корделией.
Пришло время выпускного бала. Аньянка, превратившаяся в человека, стала просто Аней и пригласила Ксандера в качестве кавалера на бал. А Корделия подрабатывает в магазине одежды, чтобы купить себе платье, так как её отец лишился денег из-за разорения. Узнав об этом, Ксандер купил ей платье за свои деньги. На балу Корделия танцует с новым Наблюдателем. А Баффи ждали сразу два сюрприза: ей вручили сувенир Защитница класса, а Ангел пришёл на бал, чтобы станцевать последний танец с любимой перед своим отъездом.
Грядёт Восхождение мэра, которому помогает Фэйт. Все пытаются узнать, как побороть зловещего мэра. Между тем, Фэйт отравила Ангела ядовитой стрелой, и спасти его теперь можно только кровью Истребительницы. Новый Наблюдатель Баффи не хочет помогать Ангелу, и Баффи отказывается подчиняться ему и Совету наблюдателей. Узнав о двойной игре Фэйт, Баффи отправляется на решающую битву с ней, чтобы получить кровь Истребительницы для Ангела. Девушка смертельно ранит Фэйт, но той удаётся ускользнуть. Между тем, Баффи решает дать Ангелу своей крови — вампир выпивает слишком много, и девушке становится плохо. Её отвозят в городскую больницу, где находится и Фэйт в состоянии комы.
Баффи быстро приходит в себя, оправившись после переливания крови, и ребята начинают готовиться к битве с демоном, в которого переродится мэр во время солнечного затмения, которое должно произойти, когда мэр будет читать речь на церемонии вручения дипломов. Друзья решили привлечь к битве всех выпускников, а в школе заложили кучу взрывчатки. В ходе битвы мэр, превратившийся в гигантского демона-червя, съедает директора Снайдера, но Баффи заманила чудовище в школу и взорвала его там.
После тяжёлой битвы всё понимают, что они выжили и отсрочили очередной Апокалипсис, хотя многие школьники и погибли. Ангел понимает, что у них с Баффи нет будущего, и сразу после победы над злобным мэром покидает Саннидейл, уехав в Лос-Анджелес.--Качество: DVDRip
Формат: AVI
Видео кодек: XviD
Аудио кодек: MP3
Видео: 576x432 (1.33:1), 23.976 fps, ~949 kbps avg, 0.16 bit/pixel
Аудио Rus: 48 kHz, MPEG Layer 3, 2 ch, ~128.00 kbps avg
Аудио Eng: 48 kHz, MPEG Layer 3, 2 ch, ~131.24 kbps avg
Перевод: Закадровый многоголосый (РенТВ)

В Ролях

Основной состав
Сара Мишель Геллар — Баффи Энн Саммерс
Николас Брендон — Александер «Ксандер» Харрис
Элисон Ханниган — Уиллоу Розенберг
Каризма Карпентер — Корделия Чейз
Энтони Стюарт Хэд — Руперт Джайлз
Дэвид Борианаз — Энджел/Энджелас
Сет Грин — Дэниэл «Оз» Озборн
Приглашённые звёзды
Кристин Сазерленд — Джойс Саммерс (16 эпизодов)
Элайза Душку — Фэйт (13 эпизодов)
Гарри Гронер — Мэр Ричард Уилкинс (11 эпизодов)
Алексис Денисоф — Уэсли Виндэм-Прайс (9 эпизодов)
Армин Шимерман — Директор Снайдер (8 пизодов)
Дэнни Стронг — Джонатан Левинсон (7 эпизодов)
Ларри Бэгби — Ларри Блейсделл (5 эпизодов)
К. Тодд Фриман — Мистер Трик (5 эпизодов)
Джейсон Холл — Девон МакЛиш (5 эпизодов)
Эмма Кулфилд — Аня Дженкинс (4 эпизода)
Итан Эриксон — Перси Уэст (4 эпизода)
Джек Плотник — Заместитель мэра Аллан Финч (4 эпизода)
Фабрицио Филиппо — Скотт Хоуп (3 эпизода)
Мерседес МакНаб — Хармони Кендэлл (3 эпизода)
Саверио Герра — Стукач Вилли (2 эпизода)
Элизабэт Энн Аллен — Эми Мэдисон (1 эпизод)
Робиа Ла Морте — Дженнни Кэлендар/Изначальное Зло (1 эпизод)
Джеймс Марстерс — Спайк (1 эпизод)
Марк Меткалф — Мастер (1 эпизод)
Робин Сэкс — Итан Рэйн (1 эпизод)
Джулия Ли — Лилли (1 эпизод)
Энди Амбергер — Д’Хоффрин (1 эпизод)
Гаррис Юлин — Квентин Треверс (1 эпизод)

Список серий

3x01 Энн / Anne
3x02 Вечеринка мертвецов / Dead Man’s Party
3x03 Вера, надежда и обман / Faith, Hope and Trick
3x04 Красавица и чудовища / Beauty and the Beasts
3x05 Королева бала / Homecoming
3x06 Сладости в фонд школьного оркестра / Band Candy
3x07 Разоблачения / Revelations
3x08 Прогулка влюблённых / Lovers Walk
3x09 Желание / The Wish
3x10 Искупление / Amends
3x11 Пряничный домик / Gingerbread
3x12 Беспомощная / Helpless
3x13 Бесполезный / The Zeppo
3x14 Плохие девчонки / Bad Girls
3x15 Последствия / Consequences
3x16 Страна двойников / Doppelgängland
3x17 Враги / Enemies
3x18 Голоса / Earshot
3x19 Решения / Choices
3x20 Выпускной бал / The Prom
3x21 Окончание школы, часть 1 / Graduation Day, Part 1
3x22 Окончание школы, часть 2 / Graduation Day, Part 2

MediaInfo

General
Complete name : E:\Сериалы новые\Buffy All Seasons\SE03\buffy.s03e01.dvdrip.rus.eng.novafilm.tv.avi
Format : AVI
Format/Info : Audio Video Interleave
File size : 394 MiB
Duration : 44mn 54s
Overall bit rate mode : Variable
Overall bit rate : 1 228 Kbps
Writing application : VirtualDubMod 1.5.10.2 (build 2542/release)
Writing library : VirtualDubMod build 2542/release
Video
ID : 0
Format : MPEG-4 Visual
Format profile : Advanced Simple@L5
Format settings, BVOP : 2
Format settings, QPel : No
Format settings, GMC : No warppoints
Format settings, Matrix : Default (H.263)
Muxing mode : Packed bitstream
Codec ID : XVID
Codec ID/Hint : XviD
Duration : 44mn 54s
Bit rate : 951 Kbps
Width : 576 pixels
Height : 432 pixels
Display aspect ratio : 1.379
Original display aspect ratio : 4:3
Frame rate : 23.976 fps
Color space : YUV
Chroma subsampling : 4:2:0
Bit depth : 8 bits
Scan type : Progressive
Compression mode : Lossy
Bits/(Pixel*Frame) : 0.159
Stream size : 306 MiB (77%)
Writing library : XviD 1.1.2 (UTC 2006-11-01)
Audio #1
ID : 1
Format : MPEG Audio
Format version : Version 1
Format profile : Layer 3
Mode : Joint stereo
Mode extension : MS Stereo
Codec ID : 55
Codec ID/Hint : MP3
Duration : 44mn 54s
Bit rate mode : Constant
Bit rate : 128 Kbps
Channel count : 2 channels
Sampling rate : 48.0 KHz
Compression mode : Lossy
Stream size : 41.1 MiB (10%)
Alignment : Aligned on interleaves
Interleave, duration : 42 ms (1.00 video frame)
Interleave, preload duration : 504 ms
Audio #2
ID : 2
Format : MPEG Audio
Format version : Version 1
Format profile : Layer 3
Mode : Joint stereo
Mode extension : MS Stereo
Codec ID : 55
Codec ID/Hint : MP3
Duration : 44mn 54s
Bit rate mode : Variable
Bit rate : 128 Kbps
Channel count : 2 channels
Sampling rate : 48.0 KHz
Compression mode : Lossy
Stream size : 42.2 MiB (11%)
Alignment : Aligned on interleaves
Interleave, duration : 24 ms (0.58 video frame)
Interleave, preload duration : 140 ms
Writing library : LAME3.92
Encoding settings : -m j -V 4 -q 2 -lowpass 17.5 --abr 128

Сезон 4, Описание, Тех.данные, Скриншоты

--Баффи, Виллоу и Оз поступают в колледж, где сталкиваются со всеми проблемами первокурсников. Баффи особенно не повезло с соседкой по комнате, которая впоследствии оказалась злобным демоном. Вскоре эта проблема была решена и соседкой Баффи стала Виллоу. Баффи пытается вести нормальную личную жизнь, знакомится с парнем, вскоре проводит с ним ночь. Но он лишь хотел переспать с ней, а Баффи потом переживала по этому поводу, как и любая девчонка. Джайлз не спешит искать себе новую работу, его вполне устраивает жить в своей квартире, куда часто заходит его давняя подруга. Хоть он уже и не является Наблюдателем Баффи, он всё же помогает друзьям и они собираются на совещания у него. Ксандер не поступил в колледж, он подрабатывает в разных местах, живёт в подвале дома его родителей, потому что постоянно ссорится с мамой. Аня вернулась и резко предложила ему встречаться, и он не смог отказать её слишком напористой позиции.
Позднее Баффи знакомится с очаровательным старшекурсником Райли Финном (Марк Блукас), работающим, как позже выясняется, на некую организацию под названием «Инициатива», цель которой — уничтожение демонов и другой нечисти. Организацию возглавляла Профессор Мэгги Уолш, которая также преподавала психологию в университете, а Райли и другие из их отряда были под прикрытием помощников Профессора, они жили как и студенты в общежитии, под которым и находилась «Инициатива». Райли начинает проявлять симпатии к Баффи и даже обращается за помощью по знакомству к её подруге Виллоу. Постепенно их отношения начинают перерастать в роман, но Баффи поначалу не хотела этих отношений, потому что их занятия очень опасны и к добру не приведут, но после совместного сражения с демонами, Баффи всё же делает шаг навстречу их любви.
В «Инициативе» Профессор Мэгги Уолш создала нечто с огромной силой наподобие демона, человека и робота — Адама, который впоследствии убил её саму и планировал создать армию таких же убийц-демонов, как и он сам. Баффи признается Райли в том, что она — Истребительница, он рассказывает об этом своей начальнице и Баффи принимают в «Инициативу», но когда Баффи слишком близко подходит к разгадке тайного проекта, Уолш пытается её убить. После этого Райли переходит на сторону Баффи и её друзей.
Немаловажную роль играет и появление в Саннидейле Спайка с новой подружкой Хармони, которая раньше была одноклассницей Баффи и друзей. Он хочет добыть перстень, дающий вампирам огромную силу и защищающий от всего, что причиняет им вред. Но Баффи отобрала у Спайка этот перстень и попросила Оза передать его Энжелу в Лос-Анджелесе. Позднее организация «Инициатива» вставила Спайку чип, не позволяющий ему причинять вред кому-либо. Он даже жил у сначала у Джайлза, а потом у Ксандера. Но когда узнал, что может бить демонов, то решает уйти в свой личный склеп. Спайк ведёт двойную игру в надежде на то, что Адам поможет ему избавиться от чипа, но в конце он встает на сторону друзей.
Подруга Баффи, Виллоу, продолжает заниматься магией. Она переживает тяжёлые времена. У её парня Оза появляется влечение к Барокке, девушке из рок-группы. Позже выяснилось, что она — тоже оборотень, как и Оз, но она более жестокая и не считает нужным запирать себя в клетке. Однажды Виллоу обнаружила их вместе и очень расстроилась. Превратившись в полнолуние в оборотней, Оз и эта девушка дерутся, что приводит к её смерти. А Оз решает уехать из Саннидейла, чтобы разобраться в себе. Позже Виллоу, сблизившись со второкурсницей Тарой Маклей (Эмбер Бенсон), которая также занимается магией, становится лесбиянкой.
В этом сезоне Фэйт выходит из комы, её сознание остановилось на моменте перед входом в кому и она не лишилась своей жестокости, она хочет отомстить Баффи. За Фэйт гоняется и полиция, и «группа зачистки» Совета наблюдателей. Мэр перед Восхождением оставил для Фэйт подарок: предмет в виде костета, который поменял Баффи и Фэйт телами, когда они схватили друг друга. Баффи в теле Фэйт забирает полиция, а затем «группа зачистки» Совета наблюдателей, которым было преказано её убить, но Баффи удалось сбежать. В это время Фэйт живёт в теле Баффи и жизнью Баффи, хотя друзья замечают что-то странное в её поведении, а подруга Виллоу, Тара, которая обладает сильными магическими способностями, увидела, что в теле Баффи находится не его хозяин, она помогает Виллоу увидеть тоже самое, и они создают нечто, что вернет их в свои тела. Баффи приходит к Джайлзу, рассказывает, что случилось, и они отправляются в церковь, где вампиры взяли заложников. Туда же пошла и Фэйт, частица доброго в ней заставила её пойти и спасти людей. Они с Баффи встречаются, дерутся, и, схватившись за руки, возвращаются в свои тела. Фэйт убегает и уезжает из Саннидейла, как позже выясняется в Лос-Анджелес к Энжелу.
После всего того, что Адам натворил, друзья решают окончательно покончить с ним. Они пробираются в «Инициативу» и одолевают его. Интересным было заклинание, с помощью которого друзья объединили все свои силы и отдали их Баффи, она стала неуязвимой, могла останавливать пули, а ракеты превращать в голубей. С таким могуществом Баффи удалось лишить Адама источника своей энергии, что убило его. Но заклинание забрало у друзей много сил и теперь им всем нужно немного отдохнуть. «Инициатива» была закрыта по решению руководства о том, что проекты были утопичны.--Качество: DVDRip
Формат: AVI
Видео кодек: DivX
Аудио кодек: MP3
Видео: 640x368 (1.74:1), 25 fps, DivX MPEG-4 Low-Motion ~949 kbps avg, 0.16 bit/pixel
Аудио Rus: 48 kHz, MPEG Layer 3, 2 ch, ~128.00 kbps avg
Аудио Eng: 48 kHz, MPEG Layer 3, 2 ch, ~128.00 kbps avg
Перевод: закадровый многоголосый (РенТВ)

В Ролях

Основной состав
Сара Мишель Геллар — Баффи Энн Саммерс
Николас Брендон — Александер «Ксандер» Харрис
Элисон Ханниган — Уиллоу Розенберг
Энтони Стюарт Хэд — Руперт Джайлз
Эмма Колфилд — Аня Дженкинс
Марк Блукас — Райли Финн
Сет Грин — Дэниэл «Оз» Озборн
Джеймс Марстерс — Уильям «Спайк» Кровавый
Приглашённые звёзды
Эмбер Бенсон — Тара Маклэй (12 эпизодов)
Леонард Робертс — Форрест Гэйтс (12 эпизодов)
Бэйли Чейз — Грэм Миллер (10 эпизодов)
Линдсей Краус — Мэгги Уолш (9 эпизодов)
Джордж Хэтцберг — Адам (9 эпизодов)
Адам Кауфман — Паркер Абрамс (5 эпизодов)
Кристин Сазерленд — Джойс Саммерс (5 эпизодов)
Мерседэс МакНаб — Хармони Кендалл (4 эпизода)
Пэйдж Мосс — Верука (3 эпизода)
Конор О'Фаррелл — Полковник МакНамара (3 эпизода)
Фина Орух — Оливия (3 эпизода)
Джек Стелин — Доктор Энглмен (3 эпзиода)
Дэвид Бореаназ — Ангел (2 эпизода)
Элайза Душку — Фэйт (2 эпизода)
Дагни Керр — Кэти Ньюман (2 эпизода)
Элизабет Энн Аллен — Эми Медисон (1 эпизод)
Итан Эриксон — Перси Уэст (1 эпизода)
Шерон Фергюсон — Первая истребительница (1 эпизод)
Гарри Гройнер — Мэр Ричард Уилкинс (1 эпизод)
Саверио Герра — Стукач Вилли (1 эпизод)
Джейсон Холл — Девон МакЛиш (1 эпизод)
Робин Сэйкс — Итан Рейн (1 эпизод)
Армин Шимерман — Директор Шнайдер (1 эпизод)
Дэнни Стронг — Джонатан Левинсон (1 эпизод)
Энди Амбергер — Д’Хоффрин (1 эпизод)

Список серий

4x01 Первокурсница / The Freshman
4x02 Условия проживания / Living Conditions
4x03 Резкий свет дня / The Harsh Light Of Day
4x04 Страх, собственной персоной / Fear, Itself
4x05 Плохое пиво / Beer Bad
4x06 Дикий сердцем / Wild At Heart
4x07 Инициатива / The Initiative
4x08 Страдания / Pangs
4x09 Нечто синее / Something Blue
4x10 Тишина / Hush
4x11 Обречённые / Doomed
4x12 Новый человек / A New Man
4x13 Я в команде / The I In Team
4x14 Прощай, Айова / Goodbye Iowa
4x15 Девушка года / This Year’s Girl
4x16 Кто ты? / Who Are You?
4x17 Суперзвезда / Superstar
4x18 Там, где дикие вещи творятся / Where The Wild Things Are
4x19 Восход молодой Луны / New Moon Rising
4x20 Фактор Йоко / The Yoko Factor
4x21 Изначальность / Primeval
4x22 Беспокойство / Restless

MediaInfo

General
Complete name : E:\Сериалы новые\Buffy All Seasons\SE04\buffy.s04e01.dvdrip.rus.eng.novafilm.tv.avi
Format : AVI
Format/Info : Audio Video Interleave
File size : 373 MiB
Duration : 42mn 37s
Overall bit rate : 1 223 Kbps
Writing application : VirtualDubMod 1.5.10.2 (build 2542/release)
Video
ID : 0
Format : MPEG-4 Visual
Codec ID : DIV3
Codec ID/Hint : DivX 3 Low
Duration : 42mn 37s
Bit rate : 953 Kbps
Width : 640 pixels
Height : 368 pixels
Display aspect ratio : 1.739
Frame rate : 25.000 fps
Color space : YUV
Chroma subsampling : 4:2:0
Bit depth : 8 bits
Compression mode : Lossy
Bits/(Pixel*Frame) : 0.162
Stream size : 290 MiB (78%)
Audio #1
ID : 1
Format : MPEG Audio
Format version : Version 1
Format profile : Layer 3
Mode : Joint stereo
Mode extension : MS Stereo
Codec ID : 55
Codec ID/Hint : MP3
Duration : 42mn 37s
Bit rate mode : Constant
Bit rate : 128 Kbps
Channel count : 2 channels
Sampling rate : 48.0 KHz
Compression mode : Lossy
Stream size : 39.0 MiB (10%)
Alignment : Aligned on interleaves
Interleave, duration : 40 ms (1.00 video frame)
Interleave, preload duration : 504 ms
Audio #2
ID : 2
Format : MPEG Audio
Format version : Version 1
Format profile : Layer 3
Mode : Joint stereo
Mode extension : MS Stereo
Codec ID : 55
Codec ID/Hint : MP3
Duration : 42mn 37s
Bit rate mode : Constant
Bit rate : 128 Kbps
Channel count : 2 channels
Sampling rate : 48.0 KHz
Compression mode : Lossy
Stream size : 39.0 MiB (10%)
Alignment : Aligned on interleaves
Interleave, duration : 40 ms (1.00 video frame)
Interleave, preload duration : 504 ms

Сезон 5, Описание, Тех.данные, Скриншоты

--Баффи замечает, что теряет сосредоточенность, а её патрулирование становится всё больше похожим на охоту и ей всё труднее контролировать свою силу. Джайлз начинает осознавать, что он больше не так нужен Баффи, как раньше, и даже хочет уехать обратно в Англию, но Баффи рассказывает ему о своих проблемах и просит вновь стать её Наблюдателем и учителем. Они возобновляют тренировки.
Хозяина магического магазинчика убила Хармони со своей шайкой, чтобы украсть книги об Истребительницах. Хармони планировала покончить с Баффи, но ей это не удалось. А Джайлз решает приобрести магический магазинчик, где он думает будет удобно проводить тренировки с Баффи, а также иметь доступ ко всему необходимому, и к книгам. На работу кассира он взял Аню, ей это очень понравилось.
Виллоу и Тара достигли определённых успехов в магии, они продолжают совершенствовать свои навыки. Ксандер с Аней решают переехать из подвала в светлую и просторную съемную квартиру. Райли неожиданно говорит Ксандеру, что Баффи его не любит. Позднее у Райли начинаются проблемы с сердцем, сказывается употребление стимуляторов в «Инициативе», но ему успевают помочь и вылечить болезнь. Хотя его доктора перед этим выкрал Спайк с Хармони в надежде, что доктор вытащит ему чип из головы, но у них ничего не получилось. После операции Баффи говорит Райли, что только он ей нужен, но он замечает всё больше и больше, что они отдаляются друг от друга. Позже он рассказывает Баффи об этом, но она не может поверить, что вина на ней. Ксандер раскрывает ей глаза и она решает остановить Райли, который уже собрался улетать обратно в армию. Баффи не успевает сделать этого…
В жизни всех как будто из неоткуда появляется младшая сестра Баффи — Дон (Мишель Трахтенберг), создаётся впечатление, что она была всегда, но позже раскроется загадка её резкого появления. А сейчас Дон только крутится вокруг Баффи и мешает ей, все считают её очень маленькой 14-летней девочкой.
Спайк начинает видеть сны, в которых он занимается любовью с Баффи, он даже вертится постоянно возле её дома. А позже пытается помогать ей. На одном из патрулирований Баффи смог ранить вампир, она хочет узнать, куда делась её ловкость и как Спайк смог убить двух Истребительниц. Он рассказывает ей историю своей жизни и в конце говорит, что в глубине души каждая Истребительница сама желает смерти, а Спайк лишь увидел это. Позднее Спайк решился признаться Баффи в любви, но она категорично ответила, что об этом не может быть и речи. В Саннидейл приехала Друсилла, она хочет вернуться к Спайку, но мало того, что он влюблён в Баффи, так он ещё и живёт с Хармони. После выяснения отношений три девушки уходят из его склепа очень огорчёнными.
У мамы Баффи начинаются проблемы со здоровьем, она как будто на секунду вспомнила, что у неё всего одна дочь — Баффи, но это никто не видел, а сама Дон толком ничего не поняла, только вызвала скорую помощь. У мамы обнаружили опухоль мозга, сделали операцию. Баффи переезжает из общежития обратно домой, она решает с помощью заклинания войти в транс и узнать, не наложили ли на её маму какое-либо проклятие, но она увидела кое-что по-интереснее: Дон мерцает что на яву, что на всех фотографиях, а её комната преобразуется в комнату, где мама Баффи держит картины. Баффи поняла, что с Дон что-то не так, она не та, за кого себя выдаёт.
В Саннидейле появляется некая богиня Глори, ищущая таинственный энергетический «Ключ». Она обладает огромной силой, которую получает, высасывая часть мозга из людей. Потом эти люди становятся сумасшедшими, помешанными на строительстве башни для Глори, на которой должен произойти обряд открытия Врат между измерениями с помощью «Ключа». Этим людям присуща некая реакция, когда они видят «Ключ» перед собой.
Этим самым «Ключом» и оказывается Дон — её создали монахи, тем самым спрятали «Ключ», чтобы Глори не смогла открыть Врата и вернуться в свой мир. Открыв их, существа, демоны и прочие не будут больше удерживаться в своих измерениях, наступит Апокалипсис для людей. Баффи узнаёт об этом и отныне заботится о Дон и оберегает её. Позднее становится известным, что богиня Глори «живёт» не в своём собственном теле, а в теле медбрата Бэна, работающего в больнице, где Баффи и Дон познакомились с ним. Когда у Глори кончаются силы, Бэн возвращается.
Джайлз за неимением информации о Глори обратился за помощью к Совету Наблюдателей, те в свою очередь приехали, начали проводить проверки, угрожали отправить Джайлза в тюрьму за сопротивление. Баффи всё это надоело, она вежливо высказалась в их сторону, объяснив, что Истребительница — главная, а не Совет. Сказала, чтобы Джайлза восстановили в должности и больше не мешали, а только помогали, если что-то знают. Совет согласился на её условия.
Баффи и Джайлз решают рассказать друзьям о Дон, после этого они начинают странно себя вести(шептаться), когда Дон рядом. Это очень досаждало ей и она решила отправиться в магический магазин Джайлза, чтобы прочитать его дневник и узнать, о чём ей не рассказывают. Дон узнала правду о себе…
В конце — Врата все же открываются, и Баффи приходится пожертвовать своей жизнью вместо сестры, чтобы закрыть их.--Качество: DVDRip
Формат: AVI
Видео кодек: XviD
Аудио кодек: MP3
Видео: 640x352 (1.82:1), 25 fps, XviD MPEG-4 ~909 kbps avg, 0.16 bit/pixel
Аудио Rus: 48 kHz, MPEG Layer 3, 2 ch, ~128.00 kbps avg
Аудио Eng: 48 kHz, MPEG Layer 3, 2 ch, ~128.00 kbps avg
Перевод: закадровый многоголосый (РенТВ)

В Ролях

Основной состав
Сара Мишель Геллар — Баффи Саммерс
Николас Брендон — Ксандер Харрис
Элисон Ханниган — Уиллоу Розенберг
Энтони Стюарт Хэд — Руперт Джайлз
Марк Блукас — Райли Финн
Джеймс Марстерс — Спайк
Мишель Трахтенберг — Дон Саммерс
Эмма Коулфилд — Аня
Эмбер Бенсон — Тара
Приглашённые звёзды[править | править исходный текст]
Кристин Сазерленд — Джойс Саммерс
Чарли Уэббер — Бэн
Клэр Крамер — Глори
Трой Блэндэл — Джинкс
Мэрсэдэс МакНаб — Хармони Кендэлл
Бэйли Чейз — Грэм Миллер
Дэвид Борианаз — Ангел
Адам Буш — Уоррен Мирс
Джульетт Ландау — Друсилла
Джули Бэнц — Дарла
Дин Батлер — Хэнк Саммерс

Список серий

5x01 Баффи против Дракулы / Buffy vs. Dracula
5x02 Моё истинное «я» / Real Me
5x03 Подмена / The Replacement
5x04 Схожу с ума / Out Of My Mind
5x05 Нет места лучше дома / No Place Like Home
5x06 Семья / Family
5x07 Глупости во имя любви / Fool For Love
5x08 Тень / Shadow 21 ноября 2000
5x09 Прислушиваясь к страху / Listening To Fear
5x10 Блуждая в потёмках / Into The Woods
5x11 Треугольник / Triangle
5x12 Проверка / Checkpoint
5x13 Кровные узы / Blood Ties
5x14 Влюблённость / Crush
5x15 Я была создана, чтобы любить тебя / I Was Made To Love You
5x16 Тело / The Body
5x17 Навсегда / Forever
5x18 Вторжение / Intervention
5x19 Трудная любовь / Tough Love
5x20 Спираль / Spiral
5x21 Тяжесть мира / The Weight Of The World
5x22 Дар / The Gift

MediaInfo

General
Complete name : E:\Сериалы новые\Buffy All Seasons\SE05\buffy.s05e01.dvdrip.rus.eng.novafilm.tv.avi
Format : AVI
Format/Info : Audio Video Interleave
File size : 371 MiB
Duration : 41mn 44s
Overall bit rate : 1 241 Kbps
Writing application : VirtualDubMod 1.5.10.2 (build 2542/release)
Writing library : VirtualDubMod build 2542/release
Video
ID : 0
Format : MPEG-4 Visual
Format settings, BVOP : No
Format settings, QPel : No
Format settings, GMC : No warppoints
Format settings, Matrix : Default (H.263)
Codec ID : XVID
Codec ID/Hint : XviD
Duration : 41mn 44s
Bit rate : 971 Kbps
Width : 640 pixels
Height : 352 pixels
Display aspect ratio : 16:9
Frame rate : 25.000 fps
Color space : YUV
Chroma subsampling : 4:2:0
Bit depth : 8 bits
Scan type : Progressive
Compression mode : Lossy
Bits/(Pixel*Frame) : 0.172
Stream size : 290 MiB (78%)
Audio #1
ID : 1
Format : MPEG Audio
Format version : Version 1
Format profile : Layer 3
Mode : Joint stereo
Mode extension : MS Stereo
Codec ID : 55
Codec ID/Hint : MP3
Duration : 41mn 44s
Bit rate mode : Constant
Bit rate : 128 Kbps
Channel count : 2 channels
Sampling rate : 48.0 KHz
Compression mode : Lossy
Stream size : 38.2 MiB (10%)
Alignment : Aligned on interleaves
Interleave, duration : 40 ms (1.00 video frame)
Interleave, preload duration : 504 ms
Audio #2
ID : 2
Format : MPEG Audio
Format version : Version 1
Format profile : Layer 3
Mode : Joint stereo
Mode extension : MS Stereo
Codec ID : 55
Codec ID/Hint : MP3
Duration : 41mn 44s
Bit rate mode : Constant
Bit rate : 128 Kbps
Channel count : 2 channels
Sampling rate : 48.0 KHz
Compression mode : Lossy
Stream size : 38.2 MiB (10%)
Alignment : Aligned on interleaves
Interleave, duration : 40 ms (1.00 video frame)
Interleave, preload duration : 504 ms

Сезон 6, Описание, Тех.данные, Скриншоты

--Друзья Баффи тяжело переживают смерть Истребительницы. Они почти не могут справиться с нахлынувшим потоком демонов и вампиров. Тогда они решают воскресить подругу. Но ожившая Баффи не кажется по-настоящему счастливой. Поначалу она говорит друзьям, что рада, что её вытащили из Ада, но вскоре правда о том, что друзья вернули Истребительницу из Рая, открывается. Дон становится клептоманкой, а Виллоу не может справиться со своей зависимостью от магии.Она не поддается на просьбы Тары быть поосторожнее с магией, меньше её использовать.Но вместо этого Виллоу пытается заклинанием заставить Тару забыть об этом а Баффи - о рае, но она напортачила с заклинанием.Тогда Тара вынужденна бросить свою любимую девушку. Виллоу очень сложно, но она берет себя в руки и держится какое-то время.
Ксандер, собиравшийся жениться на Ане, меняет свое решение в день свадьбы, внезапно осознав, что он не сможет сделать свою возлюбленную счастливой. На Баффи же сваливается множество бытовых проблем, и она «забывается» в объятиях Спайка…
А тут ещё в город приезжают три бывших неудачника, а ныне суперзлодеи, как они сами себя называют. И один из них стреляет в Баффи, но попадает в Тару, и Виллоу убивает его, а затем хочет уничтожить весь мир. Её останавливает Ксандер, а Баффи, наконец, решает все свои проблемы с Дон, она поняла, что ошибалась, запрещая Дон быть в курсе всех её дел. После попытки Спайка изнасиловать Баффи, он понимает, что не достоин её и уезжает для того чтобы стать прежним. После смертельных испытаний ему всё же возвращают душу.--Качество: DVDRip
Формат: AVI
Видео кодек: XviD
Аудио кодек: MP3
Видео: 640x368 (1.74:1), 25 fps, XviD build 9 ~973 kbps avg, 0.17 bit/pixel
Аудио Rus: 48 kHz, MPEG Layer 3, 2 ch, ~128.00 kbps avg
Аудио Eng: 48 kHz, MPEG Layer 3, 2 ch, ~128.00 kbps avg
Перевод: закадровый многоголосый (ТВ3)

В Ролях

Основной состав
Сара Мишель Геллар - Баффи Саммерс
Николас Брендон - Ксандер Харрис
Элисон Ханниган - Уиллоу Розенберг
Джеймс Марстерс - Спайк
Мишель Трахтенберг - Дон Саммерс
Эмма Коулфилд - Аня
Эмбер Бенсон - Тара Маклей
Приглашённые звёзды
Энтони Стюарт Хэд - Руперт Джайлз
Том Ленк - Эндрю Уэллс
Дэнни Стронг - Джонатан Левинсон
Адам Буш - Уоррен Мирс
Элизабэт Энн Аллен - Эми Мэдисон
Марк Блукас - Райли Финн (гостевой эпизод)
Дин Батлер - Хэнк Саммерс (гостевой эпизод)
Кристин Сазерленд - Джойс Саммерс (гостевой эпизод)

Список серий

6x01 Сделка, часть 1 / Bargaining, Part 1
6x02 Сделка, часть 2 / Bargaining, Part 2
6x03 Жизнь после смерти / After Life
6x04 Затопленные / Flooded
6x05 Жизнь по расписанию / Life Serial
6x06 До самого конца / All The Way
6x07 Ещё раз, и с чувством / Once More, With Feeling
6x08 Табула Раса / Tabula Rasa
6x09 Неисправность / Smashed
6x10 Провал / Wrecked
6x11 Исчезнувшая / Gone
6x12 Рай для гурманов / Doublemeat Palace
6x13 Мёртвые вещи / Dead Things
6x14 Взросление / Older And Far Away
6x15 Как твои дела? / As You Were
6x16 Дьявольские колокола / Hell’s Bells
6x17 И снова всё в порядке / Normal Again
6x18 Энтропия / Entropy
6x19 Видя всё в красном свете / Seeing Red
6x20 Злодеи / Villains
6x21 Оставшиеся двое / Two To Go
6x22 Могила / Grave

MediaInfo

General
Complete name : E:\Сериалы новые\Buffy All Seasons\SE06\buffy.s06e01e02.dvdrip.rus.eng.novafilm.tv.avi
Format : AVI
Format/Info : Audio Video Interleave
File size : 741 MiB
Duration : 1h 25mn
Overall bit rate : 1 213 Kbps
Writing application : VirtualDubMod 1.5.10.2 (build 2542/release)
Writing library : VirtualDubMod build 2542/release
Video
ID : 0
Format : MPEG-4 Visual
Format profile : Simple@L3
Format settings, BVOP : No
Format settings, QPel : No
Format settings, GMC : No warppoints
Format settings, Matrix : Default (H.263)
Codec ID : XVID
Codec ID/Hint : XviD
Duration : 1h 25mn
Bit rate : 942 Kbps
Width : 640 pixels
Height : 368 pixels
Display aspect ratio : 1.739
Frame rate : 25.000 fps
Color space : YUV
Chroma subsampling : 4:2:0
Bit depth : 8 bits
Scan type : Progressive
Compression mode : Lossy
Bits/(Pixel*Frame) : 0.160
Stream size : 576 MiB (78%)
Writing library : XviD 0.0.09 (UTC 2003-03-25)
Audio #1
ID : 1
Format : MPEG Audio
Format version : Version 1
Format profile : Layer 3
Mode : Joint stereo
Mode extension : MS Stereo
Codec ID : 55
Codec ID/Hint : MP3
Duration : 1h 25mn
Bit rate mode : Constant
Bit rate : 128 Kbps
Channel count : 2 channels
Sampling rate : 48.0 KHz
Compression mode : Lossy
Stream size : 78.2 MiB (11%)
Alignment : Aligned on interleaves
Interleave, duration : 40 ms (1.00 video frame)
Interleave, preload duration : 504 ms
Audio #2
ID : 2
Format : MPEG Audio
Format version : Version 1
Format profile : Layer 3
Mode : Joint stereo
Mode extension : MS Stereo
Codec ID : 55
Codec ID/Hint : MP3
Duration : 1h 25mn
Bit rate mode : Constant
Bit rate : 128 Kbps
Channel count : 2 channels
Sampling rate : 48.0 KHz
Compression mode : Lossy
Stream size : 78.2 MiB (11%)
Alignment : Aligned on interleaves
Interleave, duration : 40 ms (1.00 video frame)
Interleave, preload duration : 504 ms

Сезон 7, Описание, Тех.данные, Скриншоты

--В Саннидэйле строят новую школу на месте сгоревшей, в которую отправляется Дон на учебу и куда новый директор берет Баффи на работу — консультантом для «проблемных» подростков.
Возвращается Спайк, который находится в «нестабильном» состоянии — после возвращения души у него галлюцинации, он бредит. Баффи узнает, что он вернулся, и пытается его «привести в чувство», на некоторое время это ей удается. Она ещё не знает, что у него есть душа. Когда правда открывается, то она шокирована.
Начинают ходить непонятные слухи о том, что приближается что-то сильное и темное. По всему миру слуги Зла — Предвестники охотятся на потенциальных Истребительниц — девушек, которые могут быть призваны на роль Истребительницы в случае гибели существующей.\
Виллоу возвращается из Англии, где проходила реабилитацию у Джайлза — до неё тоже доходят слухи о приближении чего-то злого.
Со временем с каждым из героев начинают общаться мертвые знакомые, они вводят их в заблуждение и пытаются ослабить. Все упираются, и в итоге становится ясным, что это что-то пытается играть со всеми.
Особое место во всем происходящем занимает Спайк — на него Зло возымело наибольшее влияние, по ночам он выходит на охоту и начинает убивать. Чип в это время не действует, а сам он ничего не помнит из содеянного. Когда правда открывается, Спайк просит Баффи убить его, но она этого не делает и пытается помочь. Чип ломается и Баффи со Спайком отправляются в старую «Инициативу», где военные удаляют его из головы у Спайка.
В Англии происходит некая цепочка событий. Совет Наблюдателей узнает, что пробудился их главный враг — Изначальное Зло, и пытается принять меры, но бомба, заложенная в здании Совета, всех уничтожает. Джайлз, узнав, что ждет мир, начинает собирать потенциальных Истребительниц. Он приезжает с ними в Саннидэйл. Виллоу влюбляется в одну из потенциальных истребительниц — Кеннеди, и у них начинается роман. Директор школы оказывается охотником на демонов, а также сыном Истребительницы, которую убил Спайк в Бруклине. Он пытается свести счёты с вампиром, и Джайлз ему помогает, но Спайк побеждает его. Баффи запрещает ему вендетту со Спайком.
Возвращается Фэйт, которая хочет помочь Баффи. Её принимают, но со временем это приводит к тому, что потенциалки хотят подчиняться ей, а не Баффи, после чего вторую выгоняют. Но Спайк возвращает Баффи веру в себя.
В городе появляется Калеб — глава жрецов зла. У него есть Коса — мощное оружие для борьбы со Злом, но она находится в камне, из которого её может вынуть лишь Истребительница. Баффи это делает и забирает Косу. Баффи дерется с Калебом, тот её избивает и пытается убить, но появляется Энжел, который помогает ей. Калеба убивают, Энжел дает Баффи амулет, который предназначен вампиру с душой. Идет некоторое выяснение отношений, после чего Энжел уезжает — готовить резервный фронт для борьбы со Злом.
Виллоу — при помощи Косы и мощного заклинания — всех потенциальных Истребительниц делает действующими Истребительницами. Все Истребительницы вступают спускаются в Адскую Пасть и начинается битва. Бой идёт с переменным успехом: многие сверхвампиры убиты, но Баффи тяжело ранена, а многие Истребительницы погибли. Часть сверхвампиров прорываются наверх, где их пытаются остановить друзья Баффи. Предвестники также нападают на них и убивают Аню. У Спайка начинает действовать амулет, проецируя солнечный свет, который убивает воинов армии Зла и самого Спайка, а пещера начинает рушиться — все начинают спасаться бегством. Перед этим Баффи говорит Спайку, что любит его.
Все сбегают из Саннидэйла на школьном автобусе. Действие амулета приводит к тому, что на месте города остается большая впадина. Адская Пасть уничтожена.--Качество: DVDRip
Формат: AVI
Видео кодек: XviD
Аудио кодек: MP3
Видео: 640x352 (1.82:1), 25 fps, XviD build 12 ~1004 kbps avg, 0.18 bit/pixel
Аудио Rus: 48 kHz, MPEG Layer 3, 2 ch, ~128.00 kbps avg
Аудио Eng: 48 kHz, MPEG Layer 3, 2 ch, ~128.00 kbps avg
Перевод: Профессиональный (многоголосый, закадровый) /ТВ3/

В Ролях

Основной состав
Сара Мишель Геллар - Баффи Саммерс
Николас Брендон - Ксандер Харрис
Элисон Ханниган - Уиллоу Розенберг
Джеймс Марстерс - Спайк
Мишель Трахтенберг - Дон Саммерс
Эмма Коулфилд - Аня
Приглашённые звёзды
Элайза Душку - Фэйт
Ди. Би. Вудсайд - Робин Вуд
Том Ленк - Эндрю Уэллс
Энтони Стюарт Хэд - Руперт Джайлз
Кристин Сазерленд - Джойс Саммерс
Айари Лаймон - Кеннеди
Сара Хэган - Аманда
Индиго - Рона
Клара Брайант - Молли
Адам Буш - Уоррен Мирс
Фелиция Дэй - Ви
Натан Филлион - Калеб
Дэнни Стронг - Джонатан Левинсон
Джульетт Ландау — Друсилла
Дэвид Борианаз - Ангел

Список серий

7x01 Уроки / Lessons
7x02 Ты не заслуживаешь меня / Beneath You
7x03 На том же месте, в тот же час / Same Time, Same Place
7x04 Помощь / Help
7x05 Самоотверженная / Selfless
7x06 Ради него / Him
7x07 Беседы с мертвецами / Conversations With Dead People
7x08 Спящий / Sleeper
7x09 Никогда не покидай меня / Never Leave Me
7x10 Наступает ночь / Bring On The Night
7x11 Шоу начинается / Showtime
7x12 Потенциал / Potential
7x13 Убийца внутри меня / The Killer In Me
7x14 Первое свидание / First Date
7x15 Сделай это / Get It Done
7x16 Рассказчик / Storyteller
7x17 Ложь, которую мне рассказали родители /Lies My Parents Told Me
7x18 Грязные девчонки / Dirty Girls
7x19 Покинутые места / Empty Places
7x20 Момент нежности / Touched
7x21 Конец света / End Of Days
7x22 Избранные / Chosen

MediaInfo

General
Complete name : E:\Сериалы новые\Buffy All Seasons\SE07\buffy.s07e01.dvdrip.rus.eng.novafilm.tv.avi
Format : AVI
Format/Info : Audio Video Interleave
File size : 365 MiB
Duration : 40mn 3s
Overall bit rate : 1 276 Kbps
Writing application : VirtualDubMod 1.5.10.2 (build 2542/release)
Writing library : VirtualDubMod build 2542/release
Video
ID : 0
Format : MPEG-4 Visual
Format profile : Simple@L3
Format settings, BVOP : No
Format settings, QPel : No
Format settings, GMC : No warppoints
Format settings, Matrix : Default (H.263)
Codec ID : XVID
Codec ID/Hint : XviD
Duration : 40mn 3s
Bit rate : 1 005 Kbps
Width : 640 pixels
Height : 352 pixels
Display aspect ratio : 16:9
Frame rate : 25.000 fps
Color space : YUV
Chroma subsampling : 4:2:0
Bit depth : 8 bits
Scan type : Progressive
Compression mode : Lossy
Bits/(Pixel*Frame) : 0.178
Stream size : 288 MiB (79%)
Writing library : XviD 0.0.12 (UTC 2003-06-11)
Audio #1
ID : 1
Format : MPEG Audio
Format version : Version 1
Format profile : Layer 3
Mode : Joint stereo
Mode extension : MS Stereo
Codec ID : 55
Codec ID/Hint : MP3
Duration : 40mn 3s
Bit rate mode : Constant
Bit rate : 128 Kbps
Channel count : 2 channels
Sampling rate : 48.0 KHz
Compression mode : Lossy
Stream size : 36.7 MiB (10%)
Alignment : Aligned on interleaves
Interleave, duration : 40 ms (1.00 video frame)
Interleave, preload duration : 504 ms
Audio #2
ID : 2
Format : MPEG Audio
Format version : Version 1
Format profile : Layer 3
Mode : Joint stereo
Mode extension : MS Stereo
Codec ID : 55
Codec ID/Hint : MP3
Duration : 40mn 3s
Bit rate mode : Constant
Bit rate : 128 Kbps
Channel count : 2 channels
Sampling rate : 48.0 KHz
Compression mode : Lossy
Stream size : 36.7 MiB (10%)
Alignment : Aligned on interleaves
Interleave, duration : 40 ms (1.00 video frame)
Interleave, preload duration : 504 ms

_________________
[Торрент-статистика]
[Профиль]  [ЛС] 
Показать сообщения:    
Ответить на тему

Текущее время: Сегодня 19:42

Часовой пояс: GMT + 4



Вы не можете начинать темы
Вы не можете отвечать на сообщения
Вы не можете редактировать свои сообщения
Вы не можете удалять свои сообщения
Вы не можете голосовать в опросах
Вы не можете прикреплять файлы к сообщениям
Вы не можете скачивать файлы