Короли побега / Breakout Kings / Сезон: 2 / Серии: 1-10 (10) (Билл Джирхарт, Гэвин Худ) [2012 г., драма, криминал, WEB-DLRip] DVO (NewStudio)

Ответить на тему
 
Автор
Сообщение

awk05 ®

Пол:

Стаж: 4 года 5 месяцев

Сообщений: 1352

Репутация: 275 [+] [-]

Откуда: Западная Украина Ривне

Пост 28-Дек-2013 00:22

[Цитировать] 

--Короли побега / Breakout Kings-- Год выпуска: 2012
Страна: США
Жанр: драма, криминал
Сезон/Серия: Сезон:2 /Серия 1-10 из 10
Продолжительность: 10 х ~ 00:42:00
Перевод: Профессиональный (двухголосый, закадровый) - NewStudio
Субтитры: Нет--Режиссёр: Билл Джирхарт, Гэвин Худ--В ролях: Малкольм Гудвин, Джимми Симпсон, Брук Невин, Лас Алонсо, Доменик Ломбардоззи, Серинда Свон и др.--Описание: Сериал рассказывает о команде состоящей из приставов и бывших беглецов, которые работают вместе, чтобы ловить сбежавших из тюрьмы преступников. Руководствуясь тем, что есть вещи более опасные чем только что сбежавший заключённый, и уставшие от последующих за этим протоколов и обращению к устаревшим методам поиска, опытные приставы США Чарли Дюшамп (Лас Алонсо) и Рэй Занкенелли (Доменик Ломбардоззи) проявляют неортодоксальный подход к своей работе: с помощью бывших беглецов ловить сбежавших из тюрьмы заключённых.--Качество: WEB-DLRip
Формат: AVI
Видео кодек: XviD
Аудио кодек: MP3
Видео: 624x352 (16:9), 23.976 fps, ~1000 kbps, ~0.195 bit/pixel
Аудио Rus: 48 kHz, 2 ch, ~128 kbps |NewStudio|
Аудио Eng: 48 kHz, 2 ch, ~128 kbps |Original|-- --Релиз:
Озвучка: Константин Погодаев, Анна Тух (БЯКО Рекордс)
Перевод: Олег Папулов (Jeketeur), Илья Белкин (volverine73)
Подготовка видео: Koss
Работа со звуком: Koss--

Список серий

Несправедливая смерть / An Unjust Death
Round Two
Double Down
Круз Контроль / Cruz Control
Self Help
Здесь пахнет Эмми / I Smell Emmy
Любовь бесценна (на 50 тысяч) / Ain't Love (50) Grand?
Дух мести / SEALd Fate
Freakshow
Served Cold

Скриншоты

MediaInfo

Общее
Полное имя : F:\Breakout.Kings.S02.WEB-DLRip.NewStudio\Breakout.Kings.S02E01.WEB-DLRip_NewStudio.TV.avi
Формат : AVI
Формат/Информация : Audio Video Interleave
Размер файла : 400 Мбайт
Продолжительность : 43 м.
Общий поток : 1290 Кбит/сек
Программа кодирования : VirtualDubMod 1.5.10.2 (build 2540/release)
Библиотека кодирования : VirtualDubMod build 2540/release
Видео
Идентификатор : 0
Формат : MPEG-4 Visual
Профиль формата : Advanced Simple@L5
Параметр BVOP формата : 2
Параметр QPel формата : Нет
Параметр GMC формата : Без точки перехода
Параметр матрицы формата : Default (MPEG)
Идентификатор кодека : XVID
Идентификатор кодека/Подсказка : XviD
Продолжительность : 43 м.
Битрейт : 1016 Кбит/сек
Ширина : 624 пикс.
Высота : 352 пикс.
Соотношение сторон : 16:9
Частота кадров : 23,976 кадр/сек
Цветовое пространство : YUV
Подвыборка цветности : 4:2:0
Битовая глубина : 8 бит
Тип развёртки : Прогрессивная
Метод сжатия : С потерями
Бит/(Пиксели*Кадры) : 0.193
Размер потока : 315 Мбайт (79%)
Библиотека кодирования : XviD 64
Аудио #1
Идентификатор : 1
Формат : MPEG Audio
Версия формата : Version 1
Профиль формата : Layer 3
Режим : Joint stereo
Расширение режима : MS Stereo
Идентификатор кодека : 55
Идентификатор кодека/Подсказка : MP3
Продолжительность : 43 м.
Вид битрейта : Постоянный
Битрейт : 128 Кбит/сек
Каналы : 2 канала
Частота : 48,0 КГц
Метод сжатия : С потерями
Размер потока : 39,7 Мбайт (10%)
Выравнивание : Соединение по промежуткам
Продолжительность промежутка : 42 мс. (1,00 видеокадр)
Время предзагрузки промежутка : 504 ms
Аудио #2
Идентификатор : 2
Формат : MPEG Audio
Версия формата : Version 1
Профиль формата : Layer 3
Режим : Joint stereo
Расширение режима : MS Stereo
Идентификатор кодека : 55
Идентификатор кодека/Подсказка : MP3
Продолжительность : 43 м.
Вид битрейта : Переменный
Битрейт : 128 Кбит/сек
Каналы : 2 канала
Частота : 48,0 КГц
Метод сжатия : С потерями
Размер потока : 40,0 Мбайт (10%)
Выравнивание : Соединение по промежуткам
Продолжительность промежутка : 24 мс. (0,58 видеокадр)
Время предзагрузки промежутка : 503 ms
Библиотека кодирования : LAME3.90.
Настройки программы : -m j -V 4 -q 2 -lowpass 17.6 --abr 128

_________________
[Торрент-статистика]
[Профиль]  [ЛС] 
Показать сообщения:    
Ответить на тему

Текущее время: Сегодня 08:57

Часовой пояс: GMT + 4



Вы не можете начинать темы
Вы не можете отвечать на сообщения
Вы не можете редактировать свои сообщения
Вы не можете удалять свои сообщения
Вы не можете голосовать в опросах
Вы не можете прикреплять файлы к сообщениям
Вы не можете скачивать файлы