Короли побега / Breakout Kings / Сезон: 1 / Серии: 1-13 из 13 (Билл Джирхарт, Гэвин Худ) [2011, драма, криминал, HDTVRip] (DreamRecords)

Ответить на тему
 
Автор
Сообщение

awk05 ®

Пол:

Стаж: 4 года 5 месяцев

Сообщений: 1352

Репутация: 275 [+] [-]

Откуда: Западная Украина Ривне

Пост 28-Дек-2013 00:20

[Цитировать] 

--Короли побега / Breakout Kings-- Год выпуска: 2011
Страна: США
Жанр: драма, криминал
Сезон/Серия: Сезон:1 /Серия 1-13 из 13
Продолжительность: 13 х ~ 00:45:00 мин
Перевод: Любительский (многоголосный, закадровый) (DreamRecords для OneFilm)
Русские субтитры: нет
Субтитры: отсутствуют--Режиссёр: Билл Джирхарт, Гэвин Худ--В ролях: Малкольм Гудвин, Лас Алонсо, Доменик Ломбардоззи, Брук Невин, Джимми Симпсон, Серинда Свон Яра Мартинез и др.--Описание: BСериал Короли Побега (Breakout Kings) рассказывает о команде состоящей из приставов и бывших беглецов, которые работают вместе, чтобы ловить сбежавших из тюрьмы преступников.
Руководствуясь тем, что есть вещи более опасные чем только что сбежавший заключённый, и уставшие от последующих за этим протоколов и обращению к устаревшим методам поиска, опытные приставы США Чарли Дюшамп (Лас Алонсо) и Рэй Занкенелли (Доменик Ломбардоззи) проявляют неортодоксальный подход к своей работе: с помощью бывших беглецов ловить сбежавших из тюрьмы заключённых.
Чарли и Рэй формируют специальную целевую группу, составленную из трёх самых неуловимых преступников когда-либо пойманных Рэем: бывший вундеркинд и бихевиористский/психиатрический эксперт, который балуется психоанализом Ллойд Лоувери (Джимми Симпсон); бывший участник банды знающий как работать с системой - как в тюрьме, так и на улице Шон "Shea" Дэниелс (Малкольм Гудвин), и эксперт в поиске людей для их последующего исчезновения и убийства Эрика Рид (Серинда Свон). Рей и Чарли также пользуются услугами гражданского лица, которое действует как "воронка" для группы – вся информация, подсказки и данные проходят через неё - Джулианну Симмс (Брук Невин).
С каждым пойманным беглецом они предчувствуют, что всё ближе подбираются к приобретению своей собственной свободы.--Доп. информация:
Озвучено: DreamRecords
Голоса: МишкаГамми, CECTPA, Johnynu, Christh
Редакция: Nataliya, Agripina--Качество: HDTVRip
Формат: AVI
Видео кодек: XviD
Аудио кодек: MP3
Видео: 624x352 (16:9), 23,976 fps, 1 040 Kbps, 0.197 bit/pixel
Аудио: 48 kHz, MP3, 2 ch, 128 kbps-- --

Список серий

01 - Pilot
02 - Collected
03 - The Bag Man
04 - Out of the Mouths of Babes
05 - Queen of Hearts
06 - Like Father, Like Son
07 - Fun with Chemistry
08 - Steaks
09 - One for the Money
10 - Paid in Full
11 - Off the Beaten Path
12 - There are Rules
13 - Where in the World is Ca

MI

Код:
Format : AVI
Format/Info : Audio Video Interleave
File size : 365 MiB
Duration : 43mn 18s
Overall bit rate : 1 177 Kbps
Writing application : transcode-1.0.6
Writing library : VirtualDub build 32817/release
Video
ID : 0
Format : MPEG-4 Visual
Format profile : Advanced Simple@L5
Format settings, BVOP : Yes
Format settings, QPel : No
Format settings, GMC : No warppoints
Format settings, Matrix : Default (H.263)
Muxing mode : Packed bitstream
Codec ID : XVID
Codec ID/Hint : XviD
Duration : 43mn 18s
Bit rate : 1 040 Kbps
Width : 624 pixels
Height : 352 pixels
Display aspect ratio : 16:9
Frame rate : 23.976 fps
Color space : YUV
Chroma subsampling : 4:2:0
Bit depth : 8 bits
Scan type : Progressive
Bits/(Pixel*Frame) : 0.197
Stream size : 322 MiB (88%)
Writing library : XviD 1.2.1 (UTC 2008-12-04)
Audio
ID : 1
Format : MPEG Audio
Format version : Version 1
Format profile : Layer 3
Codec ID : 55
Codec ID/Hint : MP3
Duration : 43mn 18s
Bit rate mode : Constant
Bit rate : 128 Kbps
Channel(s) : 2 channels
Sampling rate : 48.0 KHz
Stream size : 39.7 MiB (11%)
Alignment : Split accross interleaves
Interleave, duration : 42 ms (1.00 video frame)
Interleave, preload duration : 500 ms

Скриншоты


_________________
[Торрент-статистика]
[Профиль]  [ЛС] 
Показать сообщения:    
Ответить на тему

Текущее время: Сегодня 06:27

Часовой пояс: GMT + 4



Вы не можете начинать темы
Вы не можете отвечать на сообщения
Вы не можете редактировать свои сообщения
Вы не можете удалять свои сообщения
Вы не можете голосовать в опросах
Вы не можете прикреплять файлы к сообщениям
Вы не можете скачивать файлы