Вероника Марс / Veronica Mars / Сезон 1-3 / Cерии 1-64 из 64 (Джон Т. Кречмер, Ник Марк, Майкл Филдс) [2004 г., драма, криминал, детектив, DVDRip]

Ответить на тему
 
Автор
Сообщение

awk05 ®

Пол:

Стаж: 4 года 5 месяцев

Сообщений: 1352

Репутация: 275 [+] [-]

Откуда: Западная Украина Ривне

Пост 28-Дек-2013 00:06

[Цитировать] 

--Вероника Марс / Veronica Mars
-- Год выпуска: 2004 -2007 г.
Страна: США
Жанр: драма, криминал, детектив
Сезон/Серия: Сезон:1-3 /Серия 1-64 из 64
Продолжительность: 64 х 00:42:00
Перевод: Профессиональный (многоголосый закадровый)
Оригинальная аудиодорожка: английский
Cубтитры: нет--Режиссер: Джон Т. Кречмер, Ник Марк, Майкл Филдс--В ролях: Кристен Бэлл, Перси Даггс Третий, Джейсон Доринг, Тедди Данн, Фрэнсис Капра, Энрико Колантони--Описание: Школьница Вероника Марс, унаследовав от отца недюжинные аналитические способности и решительность, занимается детективной работой в школе — выручает друзей, проучивает недругов. Отец Вероники потерял работу шерифа, от него ушла жена, он занялся частным розыском, Вероника во всем ему помогает…-- --

Сезон 1, Описание, Тех.данные, Скриншоты

--Описание Первый сезон рассказывает историю Вероники Марс — старшеклассницы, которая работает в детективном агентстве своего отца Кита в калифорнийском городке Нептун. Раньше Кит Марс был шерифом, однако всё изменилось, когда он обвинил компьютерного магната Джейка Кейна в убийстве собственной дочери, подруги Вероники, Лили. После той роковой ночи жизнь Вероники развалилась на части: Кита сняли с поста шерифа, когда сотрудник компании Кейна, Эйбл Кунц, признался в убийстве Лили, а сама Вероника становится изгоем. Место Кита занимает молодой и самоуверенный Дон Лэмб, получивший наводку на Кунца через анонимный звонок. Вскоре мать Вероники, Лиэнн, исчезает из города.
Теперь Вероника работает после школы в агентстве «Mars Investigations», помогая отцу разоблачать неверных мужей и мошенников и бандитов разных мастей, параллельно начав собственное расследование дела об убийстве Лили. Вскоре девушка понимает, что Кунц — не настоящий убийца её подруги: мужчина взял на себя вину, чтобы получить деньги для своей дочери, хотя сам он медленно умирает от рака. Кроме того, Вероника пытается выяснить, кто изнасиловал её, лишив девственности и накачав наркотиками во время вечеринки у Шелли Памрой.
Вероника больше не является частью этой компании, и, несмотря на то, что многие продолжают насмехаться и издеваться над ней, девушка выработала жёсткий характер и нашла новых друзей: Уоллеса Финнела — звезду школьной команды по баскетболу; Элайя «Слоника» Наварро, лидера местной банды байкеров-латиносов; компьютерного гения Синди «Мак» МакКензи. С их помощью — а также при поддержке старых друзей своего отца, помнящих, как много хорошего сделал для города Кит — Вероника раскрывает тайны, которые способен понять не каждый взрослый и всё ближе подбирается к главной загадке, скрываемой с виду благополучным городом Нептун — кто на самом деле убил Лили Кейн?--Качество: DVDRip
Формат видео: AVI
Видео кодек: DivX
Аудио кодек: MP3
Видео: 640х352,1159kbps, 16:9, 23,976 fps, 0.215 bit/pixel
Аудио: MP3 44100Hz stereo Constant,2 channels, 112kbps
Аудио 2: MP3 44100Hz stereo Constant,2 channels, 112kbps
Перевод: Профессиональный (многоголосый, закадровый) (НТВ)--

Список серий

1x01 Pilot / Пилот
Действие происходит в небольшом калифорнийском городке Нептун. Школьница Вероника Марс, унаследовав от отца недюжинные аналитические способности и решительность, занимается детективной работой в школе — выручает друзей и наказывает недругов. Почти год назад была убита её подруга Лилли Кейн, отец Вероники подозревал отца девушки, компьютерного магната Джейка Кейна…
1x02 Credit Where Credit’s Due / Вера вере рознь
Бабушка Слоника работает уборщицей у Логана — одного из богатых сыновей Нептуна. Её обвинили в мошенничестве с кредитными картами семьи Логана. Слоник берет всю вину на себя. Вероника проводит расследование и узнает, что мошенник двоюродный брат Слоника, который был в близких отношениях с Кейтлин Форт — девушкой Логана…
1x03 Meet John Smith / Знакомьтесь, Джон Смит!
Джастин, одноклассник Вероники, просит её найти его отца. Вероника узнает, что Джастин обманул её — его отец умер 7 лет назад, но оказывается, что и сам Джастин заблуждался — его отец жив и теперь он… стал женщиной.
1x04 The Wrath Of Con / Причина противоречий
Подруга Уоллеса, Джорджиа, стала жертвой мошенников. Вероника берётся помочь Уоллесу вернуть девушке деньги и разоблачает банду интернет мошенников.
1x05 You Think You Know Somebody / Если тебе кажется, что ты знаешь человека…
У Троя угоняют машину отца. В ней была игрушка со стероидами для Хэнка Зигмана — владельца спортивного клуба «Зигзаг». Вероника приходит Трою на помощь.
1x06 Return Of The Kane / Возврашение Кейна
В школе проходят выборы в президенты школьного Совета. Главные кандидаты — Ванда Варнер — выступает против сыновей богатых родителей, и Дункан Кейн, которого выдвинул Логан. Дункан побеждает, но Вероника выяснила, что борьба была не честной…, на повторных выборах все равно побеждает Дункан. Вероника узнала, что Ванда наркоманка
1x07 The Girl Next Door / Соседка Веронику просят собрать фотоальбом выпуска 1979 года. Она узнает, что в этом году её мать и отец Дункана были королём и королевой бала, и что у них был роман. Логан и Слоник получают наказание в школе, и им пришлось провести время после уроков вместе. Они подшутили над учителем, Слоника исключили из школы, но Логан вступился за него, воспользовавшись положением «богатого сынка».
1x08 Like A Virgin / Словно девственница
Вероника помогает капитану болельщиц оправдать свою репутацию и обращается к смыслящей в компьютерах Мак, вместе они пытаются узнать, кто стоит за рассылкой результатов «Теста на порочность». Мать Уоллеса запрещает ему общаться с Вероникой, находясь под влиянием слухов о Марсах. Кит Марс помогает ей избавиться от недоброжелательного квартиросъёмщика.
1x09 Drinking The Kool-Aid / Освежающий напиток
Вероника пытается найти информацию о тайном сообществе школы Нептун, чтобы узнать что случилось с учеником, находящемся в коме, который должен был вступить в это общество.
1x10 An Echolls Family Christmas / Рождество семейства Экхолз
Праздничная игра в покер у Логана превращается в кошмар после того, как кто-то украл выигрыш Слоника; Вероника берётся за расследование. Тем временем Кит помогает Линн Эхколз узнать, кто посылает её мужу угрожающие письма перед их большим Рождественским праздником.
1x11 Silence Of The Lamb / Молчаливый шериф Лэмб
Школьники нанимают Веронику, чтобы та раскопала грязные подробности из жизни их родителей, и тогда Вероника узнаёт, что при рождении Мак поменяли семьёй с Мэдисон Синклэр, которая была среди ребят на вечеринке, на которой изнасиловали Веронику. Кит и шериф Лэмб работают вместе над одним интригующим делом.
1x12 Clash Of The Tritons / Битва Тритонов
Вероника арестована за создание фальшивых удостоверений личности. Девушка пытается узнать, кто её подставил, подозревая членов тайной организации в стенах школы. Аарон нанимает Кита, чтобы узнать, кто пытается очернить его имя. Слоник признаётся психотерапевту, что у него был короткий роман с Лилли Кейн. Аарон угрожает Линн разводом, а позже её машину находят брошенной прямо посреди моста…
1x13 Lord Of The Bling / Властелин яркой жизни
Похищена старая подруга Вероники, девушка по имени Иоланда. Отец Иоланды, рэп-продюсер Перси Гамильтон нанимает Кита, чтобы найти дочь. Аарон оплакивает самоубийство жены, но Логан не верит печали отца. Более того, мальчик уверен, что его мать всё ещё жива. Он просит Веронику найти её.
1x14 Mars vs. Mars / Война в доме Марсов
Вероника пытается опровергнуть сплетни, который распространяет Кэри Бишоп — она уверяет, что любимый учитель Вероники, мистер Рукс, переспал с Кэри. А Кита, тем временем, нанимают, чтобы наоборот доказать правдивость этих слухов. Вероника находит видео, на котором Линн Экхолс прыгает с моста, и узнаёт, что Эйбл Кунц смертельно болен.
1x15 Ruskie Business / Русский бизнес
Веронику нанимает девушка с интернет-агентства по поиску жены из России, чтобы найти жениха, которого она когда-то бросила. Мег и Вероника узнают, что тайный поклонник Мег — Дункан Кейн. Сестра Логана, Трина, возвращается домой, а Вероника встречает свою мать в одном из баров.
1x16 Betty & Veronica / Бэтти и Вероника
Вероника проникает в чужую школу, когда кто-то крадёт школьный талисман, попугая Полли. Вероника узнаёт, что её мать состоит в программе для лечащихся от алкоголизма. Женщина заплатила деньгами, которые были отложены на колледж для Вероники. К тому же, женщина признаётся, что не знает, кто отец девушки — Кит или Джейк.
1x17 Kanes & Abel’s / Семья Кейнов и Аэблов
Вероника находит дочь Эйбла Кунца, Амелию ДэЛонпри, и пытается доказать, что Джейк Кейн заплатил Кунцу за то, чтобы он взял на себя вину за убийство Лилли до того, как Кларэнс Уидман доберётся до Амелии. Вместе с тем, девушка должна выяснить, кто преследует её одноклассников.
1x18 Weapons Of Class Destruction / Оружие классового уничтожения Кто-то звонит в школу, утверждая, что в ней заложена бомба. В поисках устроившего панику, Вероника похищена подозреваемым. Однако Логан вовремя приходит девушке на помощь. Дункан уезжает из города, когда узнаёт, что Вероника всё ещё расследует убийство Лилли…
1x19 Hot Dogs / Собака дня
Вероника помогает Мэнди найти похищенную собаку. Слоник проникает в комнату Лилли, чтобы забрать розовую ручку с секретом, в которой должно быть спрятано сообщение. Кит хочет установить отцовство и берёт её волосы для теста ДНК. Между Вероникой и Логаном начинается тайный роман.
1x20 M.A.D. / Сумасшествие
Парень Кармен, Тэд, начинает шантажировать девушку с помощью откровенного видео, и Кармен обращается за помощью к Веронике. Юная сыщица узнаёт, что Тэд давал Кармен запрещённый лекарственный препарат, который он купил у Логана. Но самое ужасное, что это именно то, что подсыпали ей в стакан, прежде чем изнасиловали…
1x21 A Trip To The Dentist / Путешествие к дантисту
Веронике открываются новые подробности той ночи на вечеринке Шелли Помрой, когда её накачали наркотиком и изнасиловали. Тем временем, мать Вероники возвращается в город, а друзья Логана узнают, что он встречается с Вероникой Марс. Воспоминания Дункана открывают секрет — он бросил Веронику, так как его мать сказала, что они брат и сестра.
1x22 Leave It To Beaver / Предоставьте это Биверу
Брат Дика, Бивер, рассказывает Веронике, где был Логан в ночь убийства. Кит получает результаты ДНК и говорит Веронике, что он — её отец. Мать девушки, Лианн, бросила оздоровительную программу… А Вероника, посмотрев кассеты, содержащие постельные сцены с Лили, понимает, что её лучшую подругу убил не кто иной, как Аарон Экхолз, отец Логана и таинственный ухажер Лили…

MediaInfo

General
Complete name : E:\Сериалы новые\Veronica Mars\Veronica Mars_S01\veronica_mars.s01e01.dvdrip.rus.avi
Format : DivX
Format/Info : Hack of AVI
File size : 399 MiB
Duration : 39mn 56s
Overall bit rate : 1 397 Kbps
Video
ID : 0
Format : MPEG-4 Visual
Format settings, BVOP : 1
Format settings, QPel : No
Format settings, GMC : No warppoints
Format settings, Matrix : Default (H.263)
Muxing mode : Packed bitstream
Codec ID : DX50
Codec ID/Hint : DivX 5
Duration : 39mn 56s
Bit rate : 1 159 Kbps
Width : 640 pixels
Height : 352 pixels
Display aspect ratio : 16:9
Frame rate : 23.976 fps
Color space : YUV
Chroma subsampling : 4:2:0
Bit depth : 8 bits
Scan type : Progressive
Compression mode : Lossy
Bits/(Pixel*Frame) : 0.215
Stream size : 331 MiB (83%)
Title : Video
Writing library : DivX 6.2.5 (UTC 2006-07)
Audio #1
ID : 1
Format : MPEG Audio
Format version : Version 1
Format profile : Layer 3
Mode : Dual mono
Codec ID : 55
Codec ID/Hint : MP3
Duration : 39mn 56s
Bit rate mode : Constant
Bit rate : 112 Kbps
Channel count : 2 channels
Sampling rate : 44.1 KHz
Compression mode : Lossy
Stream size : 32.0 MiB (8%)
Alignment : Split accross interleaves
Interleave, duration : 42 ms (1.00 video frame)
Interleave, preload duration : 500 ms
Title : Audio - ru
Audio #2
ID : 2
Format : MPEG Audio
Format version : Version 1
Format profile : Layer 3
Mode : Dual mono
Codec ID : 55
Codec ID/Hint : MP3
Duration : 39mn 56s
Bit rate mode : Constant
Bit rate : 112 Kbps
Channel count : 2 channels
Sampling rate : 44.1 KHz
Compression mode : Lossy
Stream size : 32.0 MiB (8%)
Alignment : Split accross interleaves
Interleave, duration : 42 ms (1.00 video frame)
Interleave, preload duration : 500 ms
Title : Audio - en

Сезон 2, Описание, Тех.данные, Скриншоты

--Описание: В начале второго сезона перед зрителями появляется картина двух новых дел сериала — крушения школьного автобуса, в котором погибло шестеро одноклассников Вероники, а также убийство Феликса — члена байкерской банды «Слоника». Автобус сорвался с обрыва, местная общественность уверена, что желание суицида водителя стало причиной трагедии. Вероника, которая должна была быть в автобусе, считает, что кто-то пытался убить её, однако дальнейшее расследование показывает, что у нескольких человек были мотивы для того, чтобы убить тех, кто находился в автобусе.
Между тем, Логана обвиняют в убийстве Феликса, так как по словам свидетелей он был последний, кто видел Феликса живым — и хотя солидный пластический хирург утверждает, что видел, как Логан ударил юношу ножом, Веронике кажется странным связь свидетеля с семьёй Фицпатрик — представителями местных головорезов и грозы мирных жителей Нептуна. Услышав доводы Вероники, «Слоник» объединяет усилия с Логаном в поисках настоящего убийцы.
Тем временем, личная жизнь Вероники не стоит на месте — она порвала с Логаном и вернулась к Дункану, однако вскоре выясняется, что Мэг, единственная выжившая после крушения автобуса, ждёт ребёнка. Тогда Вероника помогает возлюбленному скрыться из страны, и Логан получает шанс вернуть девушку. Однако дальнейшее расследование событий позволяет Веронике приоткрыть завесу тайны над её прошлым и тем, что на самом деле случилось на вечеринке у Шелли Памрой, в то время, как скелеты в шкафу мэра Вуди вот-вот станут достоянием общественности.--Качество: DVDRip
Формат: AVI
Видео кодек: XVID
Аудио кодек: AC3
Видео: 624х352, 16:9, 1 123 Kbps, 23,976 fps, 0.213 bit/pixel
Аудио: AC3 48000Hz stereo Constant, 2 channels, 192kbps
Перевод: Профессиональный (многоголосый, закадровый) (НТВ)

Список серий

2x01 Normal Is The Watchword / Пароль — «Нормальный»
Вероника проводит лето, пытаясь вновь прийти в норму, однако, все осложняется, когда Уоллеса выгоняют из баскетбольной команды из-за провала теста на наркотики. Тем временем, Кит обнаруживает, что это не так просто быть популярным в связи с написанием книги об убийстве Лили Кейн. Логан укрывается от папарацци у Дика и Бивера, а школьная экскурсия на спортивную площадку оборачивается ужасными последствиями.
2x02 Driver Ed / Водитель Эд
Вероника понимает, что её жизнь опять выходит из-под контроля, когда соглашается взяться за дело, связанное с последствиями крушения автобуса. Она пытается помочь дочери водителя автобуса доказать, что её отец не покончил жизнь самоубийством. Тем временем новая студентка Джеки привлекает внимание Уоллеса, который берётся за собственное детективное расследование.
2x03 Cheatty, Cheatty — Bang, Bang / Чмок, чмок, бах, бах!
Бивер нанимает Веронику следить за его мачехой — Кендалл, так как верит, что та обманывает его отца и планирует его обворовать. Однако, и Бивер, и Вероника потрясены тем, что обнаруживают. Тем временем Уоллес начинает встречаться с Джеки вопреки совету Вероники.
2x04 Green-Eyed Monster / Зеленоглазый монстр
Вероника пытается отвлечься от дела о крушении автобуса и берётся помочь состоятельной женщине, которая просит доказать, что её муж обманывает её. Тем временем, Кит спрашивает Алисию про загадочного незнакомца, который узнал её в Чикаго. А Слоник сообщает Веронике новую информацию, связанную с крушением автобуса.
2x05 Blast From The Past / Взрыв из прошлого
Несмотря на нелюбовь к Джеки, Вероника помогает ей найти её украденную кредитную карточку и для этого отправляется на местное шоу экстрасенсов. Тем временем, жизнь Уоллеса круто меняется, когда его настоящий отец возвращается домой. Вероника получает огромный объём информации по делу об автобусе.
2x06 Rat Saw God / Предатель встретился с Богом
Вероника потрясена тем, что объявляется умирающий Эйбл Кунц и просит её помочь найти его пропавшую дочь, прежде чем он умрёт. Логан воссоединяется со своим отцом, когда его арестовывают по делу об убийстве Феликса. Кит в ожидании результатов выборов.
2x07 Nobody Puts Baby In A Corner / Никто не ставит малышку в угол Вероника в тайне ото всех помогает Дункану найти ребёнка, с которым до аварии сидела Мег, и который подвергался жестокому обращению со стороны родителей. Дика, Бивера и Кендалл посещает их адвокат, который информирует их о желании Дика-старшего.
2x08 Ahoy, Mateys! / Вперёд, Пираты!
Вероника помогает Киту установить, кто преследует родителей одной из жертв в автобусной катастрофе. После того, как Логан просит помощи в расследовании его дела, Вероника оказывается в опасной ситуации из-за местной ирландской шайки. Лидерство Слоника в команде байкеров под вопросом.
2x09 My Mother, The Fiend / Моя мать — дьявол!
После того как в старых школьных бумагах Вероника обнаруживает имя своей матери, она желает узнать о ней как можно больше и решает найти её старых школьных друзей. Тем временем, Трина получает роль режиссёра в школьной постановке, и пока она противостоит Кендалл, Вероника противостоит Селест.
2x10 (32) One Angry Veronica / Вероника в гневе
День Вероники с каждой минутой становится все хуже и хуже с тех пор как её выбрали президентом на заседании присяжных по делу о двух подростках и латиноамериканской женщины. Она обнаруживает, что Нептун более разносторонний, нежели она думала. Кит помогает Лэмбу найти пропавшую кассету с записями встреч Лили и Аарона, так как это ключевая информация по делу Экхолза-старшего.
2x11 Donut Run / Это очень похоже на побег
Когда Дункан пропадает с ребёнком Мэг, Лэмбу приходится сотрудничать с двумя агентами ФБР для того, чтобы получить как можно больше информации от недружелюбно настроенной Вероники. У Уолесса появляется серьёзная причина, чтобы вернуться в Нептун. Слоник и Логан делают серьёзный шаг в охоте за одним из членов шайки.
2x12 Rashard & Wallace Go To White Castle / Рашид и Уоллес в белом замке
Надежды Уоллеса на побег от его проблем в Чикаго рушатся, когда дядя Рашара обвиняет его в причастности к преступлению и побеге. Слоник при помощи «жучка» Вероники в церковной исповедальне разоблачает предателя. Киту в руки попадает странная кассета по делу о крушении автобуса.
2x13 Ain’t No Magic Mountain High Enough / Покорения «Волшебной горы» не достаточно!
Вероника теряет 12 000 долларов, которые были собраны для путешествия всем классом. Деньги лежали в специальном ящичке, который был украден во время школьного карнавала. Когда начинаются обвинения, Вероника неожиданно оказывается на стороне Джеки. Бивер оказывает сопротивление Дику, а Логан встречает хорошую девушку по имени Ханна.
2x14 Versatile Toppings / Список отговорок
Закрытая группа студентов нетрадиционной ориентации Школы Нептуна обращается к Веронике за помощью, когда шантажист проникает на частный Интернет-форум и грозится всенародно опубликовать имена членов группы, если каждый не заплатит за молчание 5000 долларов. Кит продолжает работать над делом Терренса Кука, разыскивая зацепки в деле о крушении автобуса. А Логан чрезвычайно романтичен в отношениях с Ханной, однако, все это делается, чтобы доставить боль её отцу.
2x15 The Quick & The Wed / Переживания и свадьба
Новая девушка Уоллеса, Джейн, обращается к Веронике за помощью, когда её старшая сестра Хейди сбегает со свадьбы. Есть предположения, что случилось что-то действительно серьёзное по дороге к алтарю. Тем же временем, Кит и Вероника решают, что им ничего другого не остается, как обратиться за помощью к Лэмбу в связи с обнаруженными уликами по делу о крушении автобуса. А Кендалл делает привлекательное предложение Аарону Экхолзу.
2x16 The Rapes Of Graff / Гнев Граффа
Сопровождая Уоллеса в Колледж Херста, Вероника встречает своего бывшего парня — Троя. На следующее утро Троя обвиняют в том, что он изнасиловал и на лысо обрил девушку из кампуса. Вероника с неохотой, но соглашается ему помочь. Также Кит помогает Клиффу в щекотливой ситуации, связанной с проституткой. Логан принимает решение относительно его отношений с Ханной.
2x17 Plan B / Запасной план
Слоник уверен, что Тампер убил Феликса, и просит Веронику помочь доказать это. Логан выигрывает конкурс по литературе и получает возможность провести неделю с Мэром Вуди Гудманом, а Кит изучает видео, которое очевидно было установлено преследователем в доме Гудманов. Уоллес идет на школьные танцы с Джейн, а Мак спрашивает у Вероники совета, как развить её отношения с Бивером.
2x18 I Am God / Я всемогущ, как Бог! Беспокойную Веронику преследует сон, в котором виновник крушения автобуса сидит напротив неё. Логан и Уоллес объединяются для выполнения задания по физике. Они не очень весело настроены до тех пор пока не понимают, что их успех может помочь Веронике получить аттестат. Когда огромное число студентов не является на школьный тест по причине резкого ухудшения здоровья, заинтересованный глава Клеммонс нанимает Кита найти причины этого беспорядка.
2x19 Nevermind The Buttocks / Не обращайте внимание на идиота
Веронику нанимает студент, у которого пропала собака. Он просит найти убийцу её питомца. Кит узнает неожиданные сведения из прошлого Кендалл. Слоник узнает, что Фицпатрики избили одного из члена его команды. Джеки нанимается на работу и просит Веронику замолвить за неё слово. Уоллес пытается вернуть отношения с Джеки, однако, она сообщает ему новость, которая очень его огорчает.
2x20 Look Who’s Stalking / Гляньте-ка, кто у нас маньячит!
Гиа обнаруживает, что за ней следят, и Вероника берется за это дело, несмотря на приказ её отца не вмешиваться. Однако, то, что обнаруживается, не только шокирует обеих девушек, но и является ответом на многие вопросы. Тем временем, Вуди просит Кита помочь избежать скандала, связанный с ним и умершей девушкой в комнате мотеля. А также, когда Глава Клеммонс отменяет школьный бал из-за изнасилования, Логан берет все на себя и решает устроить «альтернативный бал» в своем номере в Нептун Гранде.
2x21 Happy Go Lucky / Счастливому улыбается удача!
Судебное разбирательство по делу Аарона Экхолза близится к завершению, однако, напряжение вновь нарастает, когда Вероника, Кит и Логан находят свидетеля, готового дать показания против него. В то время как Вероника находит подозрительный е-мейл в компьютере Вуди, Кит просит Лэмба об аресте Гудмана, однако, Лэмб отказывается браться за это дело, так как уверен, что Кит просто хочет прилюдно его высмеять. К ужасу всех, Лаки приносит в школу с собой ружье с целью найти Гиа.
2x22 Not Pictured / Тот, кого нет на снимке
Вероника в свой выпускной узнает кто виновен в крушении автобуса. После того, как она находит виновного и пытается приблизиться, чтобы препятствовать ему, её жизнь подвергается опасности. Уоллес узнает шокирующую информацию о Джеки. Кит при помощи Вероники завершает расследование по делу Вуди. А празднование окончания школы в Нептун Гранде продолжается…

MediaInfo

General
Complete name : E:\Сериалы новые\Veronica Mars\Veronica Mars_S02\veronica_mars.s02e01.dvdrip.ac3.rus.novafilm.avi
Format : AVI
Format/Info : Audio Video Interleave
File size : 399 MiB
Duration : 42mn 6s
Overall bit rate : 1 326 Kbps
Video
ID : 0
Format : MPEG-4 Visual
Format profile : Simple@L3
Format settings, BVOP : No
Format settings, QPel : No
Format settings, GMC : No warppoints
Format settings, Matrix : Default (H.263)
Codec ID : XVID
Codec ID/Hint : XviD
Duration : 42mn 6s
Bit rate : 1 123 Kbps
Width : 624 pixels
Height : 352 pixels
Display aspect ratio : 16:9
Frame rate : 24.000 fps
Color space : YUV
Chroma subsampling : 4:2:0
Bit depth : 8 bits
Scan type : Progressive
Compression mode : Lossy
Bits/(Pixel*Frame) : 0.213
Stream size : 338 MiB (85%)
Writing library : XviD 1.1.0 (UTC 2005-11-22)
Audio
ID : 1
Format : AC-3
Format/Info : Audio Coding 3
Mode extension : CM (complete main)
Format settings, Endianness : Big
Codec ID : 2000
Duration : 42mn 6s
Bit rate mode : Constant
Bit rate : 192 Kbps
Channel count : 2 channels
Channel positions : Front: L R
Sampling rate : 48.0 KHz
Bit depth : 16 bits
Compression mode : Lossy
Stream size : 57.8 MiB (14%)
Alignment : Aligned on interleaves
Interleave, duration : 32 ms (0.77 video frame)

Сезон 3, Описание, Тех.данные, Скриншоты

-- Описание: В третьем сезоне Вероника, Логан, Уоллес, «Мак» и Дик поступают в «Университет Хёрст» в Нептуне. Там они заводят много интересных знакомств — весёлая Паркер Ли становится соседкой по комнате «Мак», а Уоллес подружился с ведущим университетского радио Стошем Пизнарски, которого все зовут просто «Пиз». Первая сюжетная линия строится вокруг таинственного насильника из Хёртса, одной из жертв которого становится Паркер. Примечательно то, что после нападения он бреет девушек налысо. Это сюжетная линия началась ещё во втором сезоне, и раскрытием личности преступника Вероника занимается большую часть третьего сезона. Следующая тайна сезона — убийство декана Сайруса О’Дэлла, произошедшее в том же эпизоде, когда был найден насильник. Остальные побочные линии включают роман Кита с замужней клиенткой, попытки Уоллеса найти баланс между спортивной карьерой и учёбой, романтические отношения «Мак» с двумя понравившимися ей парнями, надломленность Дика после самоубийства брата. Кроме того, Вероника и Логан пытаются наладить свои отношения, но это не получается из-за растущего недоверия Вероники к своему возлюбленному--Качество: HDTVRip
Формат: AVI
Видео кодек: XviD
Аудио кодек: MP3
Видео: 624x352,16:9, 23.976fps, 1 040 Kbps,Bits/(Pixel*Frame): 0.197
Аудио 1: MPEG Audio Layer 3, 44100Hz stereo, 2 channels, 128Kbps
Аудио 2: MPEG Audio Layer 3 48000Hz stereo,2 channels, 148Kbps
Перевод: Профессиональный (двухголосый)

Список серий

3x01 Welcome Wagon / Приветственный комитет
Вероника, её парень Логан, Уоллес и Мэк начинают учёбу в колледже Херст. Уоллес просит помощи Вероники, когда у его соседа по комнате Пиза крадут все вещи из машины. Работая над делом Пиза, Вероника узнает, что прошлогодний насильник не остановился. Тем временем Кит попадает в неприятности, помогая только что освобождённому из тюрьмы Кормаку Фицпатрику встретиться с Кендалл.
3x02 My Big Fat Greek Rush Week / Моя тяжёлая неделя в общаге
Университетская газета нанимает Веронику, чтобы разоблачить женское общество Тета Бета, которое, как они уверены, замешано в изнасиловании Паркер. В процессе расследования Вероника понимает, что в обществе всё совсем не так, как кажется на первый взгляд. Между тем, Логан и Уоллес принимают участие в тюремном эксперименте, выступая в роли заключённых и надзирателей, который ставит их профессор социологии.
3x03 Witchita Linebacker / Лайнбрэкер из Вичиты
Игрок университетской футбольной команды нанимает Веронику чтобы найти украденный у него дневник игр, иначе он может лишиться стипендии. После того, как статья Вероники об обществе была опубликована, декан О’Делл шантажирует её исключением, если она не раскроет своих источников. Логан говорит Веронике, что они не могут увидеться из-за его расписания, однако она узнает, что он провёл это время, играя в подпольном казино колледжа. Тем временем, Вероника убеждает Кита взять Слоника на работу в «Расследования Марса» ассистентом.
3x04 Charlie Don’t Surf / Чарли не седлает волну
Логан замечает, что его наследство по непонятным для него причинам, уменьшается и просит Веронику провести расследование. Она выясняет, что большие суммы денег уходят к человеку по имени Чарли Стоун. Тем временем, Хармони Чейз нанимает Кита, чтобы проследить за своим мужем.
3x05 President Evil / Представитель Зла
В Херсте Хэллоуин и, пока Вероника ждёт Логана в подпольном казино, туда врываются грабители и забирают кулон, который Веронике подарила Лили. Декан О’Делл и его жена Минди просят Кита найти Стиви, биологического отца сына Минди, который смертельно болен. Тем временем, Уоллес пытается сдать экзамен по машиностроению.
3x06 Hi, Infidelity / Доверяй, но проверяй
Веронику обвиняют в копировании чужой работы для класса криминалистики профессора Лэндри. Пытаясь снять с себя обвинения, она понимает, что её наставник вовсе не такой святой. После того, как его поймали на списывании, Уоллес принимает решение, которое может повлиять на всю его жизнь в колледже. Пиз приглашает Веронику в боулинг, а она решает привести с собой Логана и Паркер, не подозревая, что он рассчитывал на что-то близкое к свиданию.
3x07 Of Vice & Men / Мужчины-грешники
Вероника злится на Кита, у которого роман с замужней клиенткой Хармони. Логан просит Веронику помочь снять обвинение в изнасиловании с Мерсера, однако отказывается сказать ей, почему уверен в его невиновности. Она собирает вещи и переезжает в комнату Пиза и Уоллеса, пока они отсутствуют. За помощью к Веронике обращается девушка, приехавшая к своему парню из другого города, но он не встретил её как они договаривались и его комната пуста.
3x08 Lord Of The Pi’s / Властитель дум
Сельма Роуз, внучка основателя Херста и член Совета попечителей, таинственно исчезает в ночь перед тем, как отдать свой решающий голос относительно системы студенческих братств в университете. Декан О’Делл нанимает Кита, чтобы найти её. Вероника как фотограф была нанята местной газетой, чтобы снимать этот приём. Они с Логаном ссорятся из-за её участия в деле об изнасиловании.
3x09 Spit & Eggs / Яйца на вертеле
Декан О’Делл восстанавливает систему братств в Херсте. Насильник оставил объявление в газете о том, где и когда будет следующая жертва. Чтобы раскрыть дело, Вероника, Мэк, Уоллес и Пиз отправляются на вечеринку, вооружённые подстаканниками, определяющими наличие наркотиков в напитках. О’Делл нанимает Кита, чтобы узнать изменяет ли ему жена.
3x10 Show Me The Monkey / Покажи мне обезьянку Вероника пытается перестать думать о Логане. По просьбе группы исследователей она берётся найти исчезнувшую из лаборатории обезьянку. Вместе с Мэк они вступают в общество защиты прав животных, подозревая, что они могут быть замешаны в похищении. Минди О’Делл просит Кита расследовать смерть декана, потому что она не верит в версию о самоубийстве.
3x11 Poughkeepsie, Tramps & Thieves / Пукипси, пройдоха и вор
Вероника ищет девушку, с которой Макс провёл незабываемую ночь, а затем она сообщила ему, что выходит замуж. В процессе поиска она выясняет, что девушка вовсе не та, за кого себя выдавала. Кит начинает расследование дела декана и ищет зацепки, которые могли бы подтвердить, что это было убийство.
3x12 There’s Got To Be A Morning After Pill / На следующее утро
После того, как Логан переспал с Мэдисон, по вине которой её изнасиловали в школе, Вероника принимает трудное решение. Между тем, девушка Тима Фойла обращается к Веронике за помощью — она хочет найти виновного в гибели своего ребёнка. А Слоник просит Веронику об одолжении, чтобы вернуться к прежней жизни.
3x13 Postgame Mortem / Смерть после игры
Тренера по баскетболу находят мёртвым, подозрения падают на его сына Джоша. Жена тренера обращается к Киту Марсу за помощью, Вероника решает также помочь, пока Кит занимается расследованием убийства декана. Джош сбегает из тюрьмы, а Вероника арестована как подозреваемая в пособничестве.
3x14 Mars, Bars / Пленённая Марс
Веронику выпускают из тюрьмы, а её друзья, тем временем, принимают участие в соревнованиях по случаю Дня Святого Валентина. Джош хочет сбежать из страны, узнав правду о смерти отца, а шериф Лэмб прибывает в дом Минди, чтобы арестовать Стива.
3x15 Papa’s Cabin / Папкина лачуга
После смерти Лэмба Кита назначают шерифом, и он продолжает расследование убийства декана. Вероника помогает Тиму подтвердить алиби профессора Лэндри, закончив расследованием поисками самого профессора и жены декана, сбежавших вместе…
3x16 Un-American Graffiti / Не-Американское граффити Вероника должна расследовать преступление на почве национально-религиозной нетерпимости. Тем временем, Кит узнаёт о случаях коррупции в стенах полицейского участка. Логан приглашает Веронику на вечеринку по случаю Дня Рождения Паркер, а Уоллес уговаривает Пиза признаться Веронике в своих чувствах.
3x17 Debasement Tapes / Компрометирующая запись
Спивающаяся рок-звезда Дэзмонж Фэллоус прибывает в Хёрст, чтобы дать благотворительный концерт для школьной радио-станции. Вскоре выясняется, что кто-то украл его вещи, необходимые для выступления. Пиз просит Веронику помочь найти пропажу, несмотря на напряжение, которое возникло между ними после поцелуя. Между тем, в городе появился новый кандидат на пост шерифа.
3x18 ) I Know What You’ll Do Next Summer / Я знаю, что ты будешь делать следующим летом
Вероника официально становится частным сыщиком, сдав на отлично квалификационный тест. Пиз берёт интервью у Аполлона Букеньи — африканского студента в Хёрсте, написавшего книгу о своём детстве в роли солдата повстанческой армии в Уганде. Некий мужчина по имени Кизза нанимает Веронику, чтобы та доказала, что Аполлон — его сын. Всё заканчивается неожиданно, когда выясняется, что история Аполлона может быть выдумкой. Когда приближаются выборы на должность шерифа Нептуна, Кит сталкивается с волной хулиганства. Паркер обращается к Веронике за советом после того, как узнаёт, что Логан собирается провести лето в путешествии с Диком.
3x19 Weevils Wobble, But They Don’t Go Down / Степенность действий
Слоник арестован за продажу поддельных социальных карт студентам Хёрста, но он клянётся Веронике, что его подставили и просит подругу доказать его невиновность. Пиз ведёт радио-дебаты Кита и Винни, а Дик неожиданно извиняется перед Мак за своё поведение по отношению к ней. После небольшой ссоры Вероника и Пиз занимаются сексом, а вскоре запись с ними таинственным образом появляется в Интернете…
3x20 The Bitch Is Back / мат вернулась! После того, как Логан избил Пиза, Вероника говорит бывшему парню, что не хочет его знать. Паркер кажется, что у Логана всё ещё есть чувства к Веронике. Пиз пытается доказать Веронике, что он не причастен к появлению записи в Интернете. С помощью Слоника, Вероника узнаёт, как вообще появилась эта запись, и кто виновен в её распространении — человек из её прошлого, как-то связанный с некой организацией под названием Дворец. Между тем, Кит принимает тяжёлое решение, чтобы защитить свою дочь…

MediaInfo

General
Complete name : E:\Сериалы новые\Veronica Mars\Veronica Mars_S03\veronica.mars.301.hdtvrip.rus.eng.uvao-net&novafilm.tv.avi
Format : AVI
Format/Info : Audio Video Interleave
File size : 388 MiB
Duration : 40mn 41s
Overall bit rate mode : Variable
Overall bit rate : 1 333 Kbps
Writing application : VirtualDubModRus 1.5.10.2 (build 2540/release)
Writing library : VirtualDubMod build 2540/release
Video
ID : 0
Format : MPEG-4 Visual
Format profile : Advanced Simple@L5
Format settings, BVOP : 2
Format settings, QPel : No
Format settings, GMC : No warppoints
Format settings, Matrix : Default (H.263)
Muxing mode : Packed bitstream
Codec ID : XVID
Codec ID/Hint : XviD
Duration : 40mn 41s
Bit rate : 1 040 Kbps
Width : 624 pixels
Height : 352 pixels
Display aspect ratio : 16:9
Frame rate : 23.976 fps
Color space : YUV
Chroma subsampling : 4:2:0
Bit depth : 8 bits
Scan type : Progressive
Compression mode : Lossy
Bits/(Pixel*Frame) : 0.197
Stream size : 303 MiB (78%)
Writing library : XviD 1.1.0 Beta1 (UTC 2005-01-16)
Audio #1
ID : 1
Format : MPEG Audio
Format version : Version 1
Format profile : Layer 3
Mode : Joint stereo
Mode extension : MS Stereo
Codec ID : 55
Codec ID/Hint : MP3
Duration : 40mn 41s
Bit rate mode : Constant
Bit rate : 128 Kbps
Channel count : 2 channels
Sampling rate : 44.1 KHz
Compression mode : Lossy
Stream size : 37.3 MiB (10%)
Alignment : Split accross interleaves
Interleave, duration : 42 ms (1.00 video frame)
Interleave, preload duration : 500 ms
Audio #2
ID : 2
Format : MPEG Audio
Format version : Version 1
Format profile : Layer 3
Mode : Joint stereo
Mode extension : MS Stereo
Codec ID : 55
Codec ID/Hint : MP3
Duration : 40mn 41s
Bit rate mode : Variable
Bit rate : 148 Kbps
Nominal bit rate : 140 Kbps
Channel count : 2 channels
Sampling rate : 48.0 KHz
Compression mode : Lossy
Stream size : 43.0 MiB (11%)
Alignment : Aligned on interleaves
Interleave, duration : 24 ms (0.58 video frame)
Interleave, preload duration : 540 ms
Writing library : LAME3.95
Encoding settings : -m j -V 4 -q 3 -lowpass 17.5 --abr 140

_________________
[Торрент-статистика]
[Профиль]  [ЛС] 
Показать сообщения:    
Ответить на тему

Текущее время: Сегодня 08:37

Часовой пояс: GMT + 4



Вы не можете начинать темы
Вы не можете отвечать на сообщения
Вы не можете редактировать свои сообщения
Вы не можете удалять свои сообщения
Вы не можете голосовать в опросах
Вы не можете прикреплять файлы к сообщениям
Вы не можете скачивать файлы