Помнить все / Незабываемое / Unforgettable / Сезон: 1 / Серии: 1-22 (22) (Нильс Арден Оплев) [2011, детектив, драма, WEB-DLRip] MVO (Домашний)

Ответить на тему
 
Автор
Сообщение

awk05 ®

Пол:

Стаж: 4 года 5 месяцев

Сообщений: 1352

Репутация: 275 [+] [-]

Откуда: Западная Украина Ривне

Пост 25-Дек-2013 20:24

[Цитировать] 

--Помнить все / Незабываемое / Unforgettable-- Год выпуска: 2011
Страна: США
Жанр: детектив, драма
Сезон/Серия: Сезон:1 /Серия 1-22 из 22
Продолжительность: 22 х ~ 00:42:00
Перевод: Профессиональный (многоголосый, закадровый) - Домашний + Original
Субтитры: Русские, Английские, Русские форсированные (на вырезанные моменты)--Режиссёр: Нильс Арден Оплев--В ролях: Поппи Монтгомери, Дилан Уолш, Майкл Гэстон, Кевин О. Ранкин, Дая Вайдя, Майкл Дж. Бёрг, Элизер Мейер, Мелоди Уайсс, Роксанна Хоуп, Шоун Майкл и др.--Описание: Детектив Кэрри Уэллс обладает уникальной способностью помнить все, что когда-либо с ней происходило. Благодаря этому дару, она прекрасно выполняет свою работу, находясь на страже правопорядка. Но для личной жизни сверхпамять - это настоящее проклятие. Кэрри помнит каждое мгновенье, каждую секунду своей жизни, кроме дня, когда была убита её сестра.--Качество: WEB-DLRip
Формат: AVI
Видео кодек: XviD
Аудио кодек: AC3
Видео: 624x352 (16:9), 23.976 fps, ~1200 kbps, ~0.225 bit/pixel
Аудио Rus: 48 kHz, 2 ch, ~192 kbps |Домашний|
Аудио Eng: 48 kHz, 2 ch, ~192 kbps |Original|-- --

Список серий

Pilot / Пилот
Heroes / Герои
Check Out Time / Время расчёта
Up In Flames / Опаленные любовью
With Honor / С честью
Friended / Друзья до гроба
Road Block / Камень преткновения
Lost Things / Пропавшие вещи
Golden Bird / Золотая птица
Trajectories / Траектории
Spirited Away / Унесённые призраками
Butterfly Effect / Эффект бабочки
Brotherhood / Братство
Carrie’s Caller / Анонимный звонок
The Following Sea / Попутная волна
Heartbreak / Разбитое сердце
Blind Alleys / Тупик
The Comeback / Возвращение
Allegiances / Преданность
You Are Here / Ты здесь
Endgame / Конец игры
The Man in the Woods / Человек в лесу

MediaInfo

Общее
Полное имя : F:\Unforgettable.s01.web-dlrip.rus.eng\Unforgettable.s01e01.web-dlrip.rus.eng.avi
Формат : AVI
Формат/Информация : Audio Video Interleave
Размер файла : 500 Мбайт
Продолжительность : 44 м.
Общий поток : 1588 Кбит/сек
Программа кодирования : VirtualDubMod 1.5.10.2 (build 2540/release)
Библиотека кодирования : VirtualDubMod build 2540/release
Видео
Идентификатор : 0
Формат : MPEG-4 Visual
Профиль формата : Advanced Simple@L5
Параметр BVOP формата : 1
Параметр QPel формата : Нет
Параметр GMC формата : Без точки перехода
Параметр матрицы формата : Выборочная
Идентификатор кодека : XVID
Идентификатор кодека/Подсказка : XviD
Продолжительность : 44 м.
Битрейт : 1190 Кбит/сек
Ширина : 624 пикс.
Высота : 352 пикс.
Соотношение сторон : 16:9
Частота кадров : 23,976 кадр/сек
Цветовое пространство : YUV
Подвыборка цветности : 4:2:0
Битовая глубина : 8 бит
Тип развёртки : Прогрессивная
Метод сжатия : С потерями
Бит/(Пиксели*Кадры) : 0.226
Размер потока : 375 Мбайт (75%)
Библиотека кодирования : XviD 65
Аудио #1
Идентификатор : 1
Формат : AC-3
Формат/Информация : Audio Coding 3
Расширение режима : CM (complete main)
Идентификатор кодека : 2000
Продолжительность : 44 м.
Вид битрейта : Постоянный
Битрейт : 192 Кбит/сек
Каналы : 2 канала
Расположение каналов : Front: L R
Частота : 48,0 КГц
Битовая глубина : 16 бит
Метод сжатия : С потерями
Размер потока : 60,5 Мбайт (12%)
Выравнивание : Разделение по промежуткам
Продолжительность промежутка : 42 мс. (1,00 видеокадр)
Время предзагрузки промежутка : 500 ms
Аудио #2
Идентификатор : 2
Формат : AC-3
Формат/Информация : Audio Coding 3
Расширение режима : CM (complete main)
Идентификатор кодека : 2000
Продолжительность : 44 м.
Вид битрейта : Постоянный
Битрейт : 192 Кбит/сек
Каналы : 2 канала
Расположение каналов : Front: L R
Частота : 48,0 КГц
Битовая глубина : 16 бит
Метод сжатия : С потерями
Размер потока : 60,5 Мбайт (12%)
Выравнивание : Разделение по промежуткам
Продолжительность промежутка : 42 мс. (1,00 видеокадр)
Время предзагрузки промежутка : 500 ms

_________________
[Торрент-статистика]
[Профиль]  [ЛС] 
Показать сообщения:    
Ответить на тему

Текущее время: Сегодня 20:30

Часовой пояс: GMT + 4



Вы не можете начинать темы
Вы не можете отвечать на сообщения
Вы не можете редактировать свои сообщения
Вы не можете удалять свои сообщения
Вы не можете голосовать в опросах
Вы не можете прикреплять файлы к сообщениям
Вы не можете скачивать файлы