На зов скорби / Les Revenants / Сезон: 1 / Серии: 1-8 из 8 (Fabrice Gobert) [2012, триллер, WEB-DLRip] MVO (Agatha Studdio) + Original

Ответить на тему
 
Автор
Сообщение

awk05 ®

Пол:

Стаж: 4 года 5 месяцев

Сообщений: 1352

Репутация: 275 [+] [-]

Откуда: Западная Украина Ривне

Пост 25-Дек-2013 16:15

[Цитировать] 

--На зов скорби / Les Revenants-- Англоязычное название: Rebound
Год выпуска: 2012
Страна: Франция
Жанр: триллер
Сезон:/Серия: Сезон: 1 / Серии: 1-8 из 8
Продолжительность: 8 ~ 00:55:00
Перевод: Профессиональный (многоголосый закадровый) - Agatha Studdio
Русские субтитры: нет
Субтитры: отсутствуют--Режиссёр: Fabrice Gobert, Frédéric Mermoud--В ролях: Frédéric Pierrot, Samir Guesmi, Guillaume Gouix, Jean-François Sivadier, Alix Poisson, Jenna Thiam, Anne Consigny, Clotilde Hesme, Céline Sallette, Grégory Gadebois, Pierre Perrier, Yara Pilartz, Swann Nambotin, Ana Girardot...--Описание: В небольшой альпийской деревушке, растерянные люди пытаются вернуться домой. Они ещё не знают, что мертвы уже несколько лет. Вернувшиеся полны решимости вернуть себе место в мире живых. Но, похоже, воскресли не только мирные жители. Их возврат совпадает с серией жестоких убийств, похожих на дело рук серийного убийцы из прошлого. И на этом нарушения в естественном ходе вещей не заканчиваются...--Доп. информация: Ограничение по возрасту 12 лет (по версии Canal+)
Но, судя по картинке, это русское 18+.
Ориентировочно: Съемки второго сезона в феврале 2014 года, показ в ноябре.--Над релизом работали:

Перевод: vipere. Редактура: Agatha
Роли озвучивали: Сергей Пономарёв, Александр Дасевич,
Анастасия Флигина и Татьяна Манетина.
Работа со звуком: iRUSik, Сергей Мартынов. Постер: skofield--Качество: WEB-DLRip
Формат: AVI
Видео кодек: XviD
Аудио кодек: MP3
Видео: 720x400 (16:9), 25.000 fps, MPEG4 Visual 1 571 Kbps, 0.218 bit/pixel
Аудио 1: RUS - 192 Кб/сек 48 kHz, MPEG Layer 3, 2 ch
Аудио 2: FR - 192 Кб/сек 48 kHz, MPEG Layer 3, 2 ch--

MediaInfo

General
Complete name : D:\Les.Revenants.s01_Agatha.Studdio\Les.Revenants.s01e01_Agatha.Studdio.avi
Format : AVI
Format/Info : Audio Video Interleave
File size : 780 MiB
Duration : 55mn 8s
Overall bit rate : 1 977 Kbps
Video
ID : 0
Format : MPEG-4 Visual
Format profile : Advanced Simple@L5
Format settings, BVOP : 2
Format settings, QPel : No
Format settings, GMC : No warppoints
Format settings, Matrix : Default (H.263)
Codec ID : XVID
Codec ID/Hint : XviD
Duration : 55mn 8s
Bit rate : 1 571 Kbps
Width : 720 pixels
Height : 400 pixels
Display aspect ratio : 16:9
Frame rate : 25.000 fps
Color space : YUV
Chroma subsampling : 4:2:0
Bit depth : 8 bits
Scan type : Progressive
Compression mode : Lossy
Bits/(Pixel*Frame) : 0.218
Stream size : 620 MiB (79%)
Writing library : XviD 1.2.1 (UTC 2008-12-04)
Audio #1
ID : 1
Format : MPEG Audio
Format version : Version 1
Format profile : Layer 3
Codec ID : 55
Codec ID/Hint : MP3
Duration : 55mn 8s
Bit rate mode : Constant
Bit rate : 192 Kbps
Channel(s) : 2 channels
Sampling rate : 48.0 KHz
Compression mode : Lossy
Stream size : 75.7 MiB (10%)
Alignment : Aligned on interleaves
Interleave, duration : 24 ms (0.60 video frame)
Audio #2
ID : 2
Format : MPEG Audio
Format version : Version 1
Format profile : Layer 3
Codec ID : 55
Codec ID/Hint : MP3
Duration : 55mn 8s
Bit rate mode : Constant
Bit rate : 192 Kbps
Channel(s) : 2 channels
Sampling rate : 48.0 KHz
Compression mode : Lossy
Stream size : 75.7 MiB (10%)
Alignment : Aligned on interleaves
Interleave, duration : 24 ms (0.60 video frame)

Скриншоты


_________________
[Торрент-статистика]
[Профиль]  [ЛС] 
Показать сообщения:    
Ответить на тему

Текущее время: Сегодня 22:18

Часовой пояс: GMT + 4



Вы не можете начинать темы
Вы не можете отвечать на сообщения
Вы не можете редактировать свои сообщения
Вы не можете удалять свои сообщения
Вы не можете голосовать в опросах
Вы не можете прикреплять файлы к сообщениям
Вы не можете скачивать файлы