Избранный / Chosen / Сезон: 1 / Серии: 1-6 из 6 (Тоби Уилкинс, Бен Кетаи) [2013, психологический триллер, боевик, WEB-DLRip] DVO (Agatha Studdio) + Original

Ответить на тему
 
Автор
Сообщение

awk05 ®

Пол:

Стаж: 4 года 5 месяцев

Сообщений: 1352

Репутация: 275 [+] [-]

Откуда: Западная Украина Ривне

Пост 25-Дек-2013 15:25

[Цитировать] 

--Избранный / Chosen-- Год выпуска: 2013
Страна: США
Жанр: психологический триллер, боевик
Сезон:/Серии: Сезон: 1 / Серии: 1-6 из 6
Продолжительность: 6 x ~ 00:22:00
Перевод: Профессиональный (двухголосый закадровый) Agatha Studdio
Русские субтитры: нет--Режиссёр:Бен Кетаи / Ben Ketai--В ролях: Кэйтлин Кармайкл, Никки Уилан, Чад Майкл Мюррэй, Майло Вентимилья, Сара Ремер, Александр Ле Бас, Роуз МакГоун, Сэмми Ханратти, Джозеф Лутман, Брэндон Рут-Описание: Ян Митчелл, муж, отец и адвокат, проснувшись однажды утром, находит на пороге своего дома загадочную коробку с пистолетом и фото неизвестного ему человека, которого он должен убить в течение трёх дней.--Качество видео:WEB-DLRip
Формат видео: AVI
Видео кодек: MPEG4, XviD
Аудио кодек: MP3
Видео: MPEG4, XviD, 656x368 (16:9), 23.976 fps, 1 002 Kbps (0.173 bit/pixel))
Аудио 1: 2 канала Front: L R, 48,0 КГц, 192 Кбит/сек, 16 бит [RUS]
Аудио 2: 2 канала Front: L R, 48,0 КГц, 192 Кбит/сек, 16 бит [ENG]-- --

Скриншоты

Тех. данные (MI)

Код:
Общее
Полное имя                               : G:\тест\Chosen.s01_Agatha.Studdio\Chosen.s01e01_Agatha.Studdio.avi
Формат                                   : AVI
Формат/Информация                        : Audio Video Interleave
Размер файла                             : 223 Мбайт
Продолжительность                        : 22 м.
Общий поток                              : 1400 Кбит/сек
Программа кодирования                    : VirtualDubModRus 1.5.10.2 (build 2542/release)
Библиотека кодирования                   : VirtualDubMod build 2542/release
Видео
Идентификатор                            : 0
Формат                                   : MPEG-4 Visual
Профиль формата                          : Advanced Simple@L5
Параметр BVOP формата                    : 1
Параметр QPel формата                    : Нет
Параметр GMC формата                     : Без точки перехода
Параметр матрицы формата                 : Выборочная
Идентификатор кодека                     : XVID
Идентификатор кодека/Подсказка           : XviD
Продолжительность                        : 22 м.
Битрейт                                  : 1002 Кбит/сек
Ширина                                   : 656 пикселей
Высота                                   : 368 пикселей
Соотношение сторон                       : 16:9
Частота кадров                           : 23,976 кадра/сек
Цветовое пространство                    : YUV
Субдискретизация насыщенности            : 4:2:0
Битовая глубина                          : 8 бит
Тип развёртки                            : Прогрессивная
Метод сжатия                             : С потерями
Бит/(Пиксели*Кадры)                      : 0.173
Размер потока                            : 160 Мбайт (72%)
Библиотека кодирования                   : XviD 63
Аудио #1
Идентификатор                            : 1
Формат                                   : MPEG Audio
Версия формата                           : Version 1
Профиль формата                          : Layer 3
Режим                                    : Joint stereo
Расширение режима                        : MS Stereo
Идентификатор кодека                     : 55
Идентификатор кодека/Подсказка           : MP3
Продолжительность                        : 22 м.
Вид битрейта                             : Постоянный
Битрейт                                  : 192 Кбит/сек
Каналы                                   : 2 канала
Частота                                  : 48,0 КГц
Метод сжатия                             : С потерями
Размер потока                            : 30,6 Мбайт (14%)
Выравнивание                             : Соединение по промежуткам
Продолжительность промежутка             : 42  мс. (1,00 видеокадр)
Время предзагрузки промежутка            : 504  мс.
Библиотека кодирования                   : LAME3.98.2
Аудио #2
Идентификатор                            : 2
Формат                                   : MPEG Audio
Версия формата                           : Version 1
Профиль формата                          : Layer 3
Режим                                    : Joint stereo
Расширение режима                        : MS Stereo
Идентификатор кодека                     : 55
Идентификатор кодека/Подсказка           : MP3
Продолжительность                        : 22 м.
Вид битрейта                             : Постоянный
Битрейт                                  : 192 Кбит/сек
Каналы                                   : 2 канала
Частота                                  : 48,0 КГц
Метод сжатия                             : С потерями
Размер потока                            : 30,6 Мбайт (14%)
Выравнивание                             : Соединение по промежуткам
Продолжительность промежутка             : 42  мс. (1,00 видеокадр)
Время предзагрузки промежутка            : 504  мс.
Библиотека кодирования                   : LAME3.98.2

_________________
[Торрент-статистика]
[Профиль]  [ЛС] 
Показать сообщения:    
Ответить на тему

Текущее время: Сегодня 10:56

Часовой пояс: GMT + 4



Вы не можете начинать темы
Вы не можете отвечать на сообщения
Вы не можете редактировать свои сообщения
Вы не можете удалять свои сообщения
Вы не можете голосовать в опросах
Вы не можете прикреплять файлы к сообщениям
Вы не можете скачивать файлы