Красная вдова / Red Widow / Сезон: 1 / Серии: 1-8 из 8 (Билл Джирхарт, Терри МакДонаф, Марк Пеллингтон) [2013, криминал, драма, WEB-DLRip] MVO (Fox)

Ответить на тему
 
Автор
Сообщение

awk05 ®

Пол:

Стаж: 4 года 5 месяцев

Сообщений: 1352

Репутация: 275 [+] [-]

Откуда: Западная Украина Ривне

Пост 24-Дек-2013 15:23

[Цитировать] 

--Красная вдова / Red Widow-- Год выпуска: 2013
Страна: США
Жанр: криминал, драма
Сезон/Серия: Сезон:1 /Серия 1-8 из 8
Продолжительность:8 х 00:43:00
Перевод: Профессиональный (многоголосый закадровый) (Fox)
Субтитры: нет--Режиссёр: Билл Джирхарт, (Сыны Анархии, Ходячие мертвецы, Короли побега), Терри МакДонаф, Марк Пеллингтон--В ролях: Энсон Маунт ("Ад на колесах", "Остаться в живых" и др.), Стерлинг Бомон, Люк Госс ("Хеллбой 2", "Грань" и др.), Джейми Рэй Ньюман, Джейкоб Сальвати, Клифтон Коллинз мл. ("Звездный путь", "Щит" и др.), Сулека Мэтью, Горан Вишнич, Винс Нэппо, Фернанда Андраде, Дарси Хиндс, Наталия Ногулич и др.--Описание: Марта Уэлрэйвин была обычной домохозяйкой из пригорода, которая жила обычной жизнью в Северной Калифорнии. Однажды идеальная жизнь Марты была разрушена когда её муж Франклин, зарабатывавший деньги незаконным путем, был убит. Марта закрывала глаза на дела своего мужа при его жизни, но сейчас ей предстоит продолжить его дело, чтобы спасти своих детей.--Качество: WEB-DLRip
Формат: AVI
Видео кодек: XviD
Аудио кодек: MP3
Видео: 720x400 (1.80:1), 23.975 fps, ~1300 kbps avg, 0.19 bit/pixel
Аудио (rus): 48 kHz, MPEG Layer 3, 2 ch, 128 kbps avg
Аудио 2 (eng): 48 kHz, MPEG Layer 3, 2 ch, 128 kbps avg--Релиз:
Озвучка: Fox

Работа со звуком: Baggio
Подготовка видео: Baggio-- --

Список серий

1). Засада (Ambush).
2). Контакт (The Contact).
3). Груз (The Consignment).
4). Побег (The Escape).
5). Регистратор (The Recorder)
6). Заложник (The Captive)
7). Кокаин (The Coke)
8). Удар (The Hit)

Скриншоты


MI

General
Complete name : E:\Сериалы новые\Красная вдова (Сезон 1) Fox\Red.Widow.s01e01.WEBDLRip.NewStudio.TV.avi
Format : AVI
Format/Info : Audio Video Interleave
File size : 500 MiB
Duration : 43mn 14s
Overall bit rate : 1 617 Kbps
Writing application : VirtualDubMod 1.5.10.2 (build 2540/release)
Writing library : VirtualDubMod build 2540/release
Video
ID : 0
Format : MPEG-4 Visual
Format profile : Advanced Simple@L5
Format settings, BVOP : 2
Format settings, QPel : No
Format settings, GMC : No warppoints
Format settings, Matrix : Default (MPEG)
Codec ID : XVID
Codec ID/Hint : XviD
Duration : 43mn 14s
Bit rate : 1 286 Kbps
Width : 720 pixels
Height : 400 pixels
Display aspect ratio : 16:9
Frame rate : 23.976 fps
Color space : YUV
Chroma subsampling : 4:2:0
Bit depth : 8 bits
Scan type : Progressive
Compression mode : Lossy
Bits/(Pixel*Frame) : 0.186
Stream size : 398 MiB (80%)
Writing library : XviD 64
Audio #1
ID : 1
Format : MPEG Audio
Format version : Version 1
Format profile : Layer 3
Mode : Joint stereo
Mode extension : MS Stereo
Codec ID : 55
Codec ID/Hint : MP3
Duration : 43mn 14s
Bit rate mode : Constant
Bit rate : 128 Kbps
Channel count : 2 channels
Sampling rate : 48.0 KHz
Compression mode : Lossy
Stream size : 39.6 MiB (8%)
Alignment : Aligned on interleaves
Audio #2
ID : 2
Format : MPEG Audio
Format version : Version 1
Format profile : Layer 3
Mode : Joint stereo
Mode extension : MS Stereo
Codec ID : 55
Codec ID/Hint : MP3
Duration : 43mn 14s
Bit rate mode : Constant
Bit rate : 128 Kbps
Channel count : 2 channels
Sampling rate : 48.0 KHz
Compression mode : Lossy
Stream size : 39.6 MiB (8%)
Alignment : Aligned on interleaves

_________________
[Торрент-статистика]
[Профиль]  [ЛС] 

nova1980

Пол:

Стаж: 5 лет

Сообщений: 820

Репутация: 523 [+] [-]

Откуда: Одесса Мама

Пост 24-Дек-2013 22:35 (спустя 7 часов)

[Цитировать] 

Нет сриншотов, а обложка есть!

_________________
Мои Раздачи
[Торрент-статистика]
[Профиль]  [ЛС] 

awk05 ®

Пол:

Стаж: 4 года 5 месяцев

Сообщений: 1352

Репутация: 275 [+] [-]

Откуда: Западная Украина Ривне

Пост 24-Дек-2013 22:38 (спустя 2 минуты)

[Цитировать] 

Нет сриншотов, а обложка есть!
а у меня все видно.??????

_________________
[Торрент-статистика]
[Профиль]  [ЛС] 

nova1980

Пол:

Стаж: 5 лет

Сообщений: 820

Репутация: 523 [+] [-]

Откуда: Одесса Мама

Пост 24-Дек-2013 23:16 (спустя 38 минут)

[Цитировать] 

awk05, вот щя и я вижу!

_________________
Мои Раздачи
[Торрент-статистика]
[Профиль]  [ЛС] 
Показать сообщения:    
Ответить на тему

Текущее время: Сегодня 10:07

Часовой пояс: GMT + 4



Вы не можете начинать темы
Вы не можете отвечать на сообщения
Вы не можете редактировать свои сообщения
Вы не можете удалять свои сообщения
Вы не можете голосовать в опросах
Вы не можете прикреплять файлы к сообщениям
Вы не можете скачивать файлы