Кукольный дом / Dollhouse / Сезон: 1 / Серии: 1-13 из 13 (Джосс Уидон) [2009, фантастика, триллер, драма, HDRip] (ТВ3)

Ответить на тему
 
Автор
Сообщение

awk05 ®

Пол:

Стаж: 4 года 5 месяцев

Сообщений: 1352

Репутация: 275 [+] [-]

Откуда: Западная Украина Ривне

Пост 23-Дек-2013 13:52

[Цитировать] 

--Кукольный дом / Dollhouse--
Год выпуска: 2009
Страна: США
Жанр: фантастика, триллер, драма
Сезон/Серия: Сезон:1 /Серия 1-13 из 13
Продолжительность: 13 х 00:50:17
Перевод: Профессиональный (многоголосый) (ТВ3)
Русские субтитры: нет--Режиссёр: Джосс Уидон--В ролях: Элайза Душку, Эми Акер, Рид Даймонд, Энвер Джокай, Фран Кранц, Дичен Лакман, Гарри Ленникс, Тамо Пеникетт, Оливия Уильямс--Описание: Они будут тем, кем вы захотите, и сделают то, что вам нужно. Они говорят на всех языках и обладают всеми навыками сразу. Они живут в месте, где стираются сожаления, боль, воспоминания, и говорят, что они пришли туда добровольно. Но…так ли это? Девушка по имени Эко живет в таинственном «Кукольном доме» и является членом незаконной и подпольной группы людей, чья индивидуальность была стерта.
Она — Кукла. Нанимаемые богачами и влиятельными людьми, Куклы не просто выполняют свои роли, а полностью становятся теми, кого хочет видеть очередной клиент. В их разум может быть загружено бесчисленное количество информации, и каждый раз после выполнения задания она полностью стирается. Но однажды память Эко будто просыпается от тяжелого сна, и она начинает медленно, по кусочкам собирать свое таинственное прошлое…--Качество: HDRip
Формат: AVI
Видео кодек: XviD
Аудио кодек: AC3
Видео: 720x400 (1.80:1), 23.976 fps, XviD build 47 ~1568 kbps avg, 0.23 bit/pixel
Аудио: 48 kHz, AC3 Dolby Digital, 2/0 (L,R) ch, ~192.00 kbps avg--

MediaInfo

General
Complete name : E:\Сериалы новые\Кукольный дом - сезон 1\Dollhouse.1x01.HDRip.Rus.[www.Riper.AM].avi
Format : AVI
Format/Info : Audio Video Interleave
File size : 636 MiB
Duration : 50mn 17s
Overall bit rate : 1 769 Kbps
Writing application : VirtualDubModRus 1.5.10.1 (build 2439/release)
Writing library : VirtualDubMod build 2439/release
Video
ID : 0
Format : MPEG-4 Visual
Format profile : Advanced Simple@L5
Format settings, BVOP : 3
Format settings, QPel : No
Format settings, GMC : No warppoints
Format settings, Matrix : Default (H.263)
Codec ID : XVID
Codec ID/Hint : XviD
Duration : 50mn 17s
Bit rate : 1 568 Kbps
Width : 720 pixels
Height : 400 pixels
Display aspect ratio : 16:9
Frame rate : 23.976 fps
Color space : YUV
Chroma subsampling : 4:2:0
Bit depth : 8 bits
Scan type : Progressive
Compression mode : Lossy
Bits/(Pixel*Frame) : 0.227
Stream size : 564 MiB (89%)
Writing library : XviD 1.2.0.dev47 (UTC 2006-11-01)
Audio
ID : 1
Format : AC-3
Format/Info : Audio Coding 3
Mode extension : CM (complete main)
Format settings, Endianness : Big
Codec ID : 2000
Duration : 50mn 17s
Bit rate mode : Constant
Bit rate : 192 Kbps
Channel count : 2 channels
Channel positions : Front: L R
Sampling rate : 48.0 KHz
Bit depth : 16 bits
Compression mode : Lossy
Stream size : 69.1 MiB (11%)
Alignment : Split accross interleaves
Interleave, duration : 42 ms (1.00 video frame)
Interleave, preload duration : 500 ms

_________________
[Торрент-статистика]
[Профиль]  [ЛС] 
Показать сообщения:    
Ответить на тему

Текущее время: Сегодня 10:57

Часовой пояс: GMT + 4



Вы не можете начинать темы
Вы не можете отвечать на сообщения
Вы не можете редактировать свои сообщения
Вы не можете удалять свои сообщения
Вы не можете голосовать в опросах
Вы не можете прикреплять файлы к сообщениям
Вы не можете скачивать файлы