Джон Доу / John Doe / Сезон 1 полностью (21 серия) / (Mimi Leder и др.) [2002 г., фантастика, экшен, триллер, HDTVRip] (1001cinema)

Ответить на тему
 
Автор
Сообщение

awk05 ®

Пол:

Стаж: 4 года 5 месяцев

Сообщений: 1352

Репутация: 275 [+] [-]

Откуда: Западная Украина Ривне

Пост 20-Дек-2013 01:44

[Цитировать] 

--Джон Доу / John Doe -- Год выпуска: 2002
Страна: США
Жанр: фантастика, экшен, триллер
Сезон/Серия: Сезон:1 /Серия 1-21 из 21
Продолжительность: 21 х ~00:42:20
Перевод: Любительский (одноголосый)
Русские субтитры: нет--Режиссер: Мими Ледер, Генри Брончтейн, Феликс Энрикез Алькала и др.--В ролях: Доминик Пурселл / Dominic Purcell, Джон Маршалл Джонс / John Marshall Jones, Джэйн Брук / Jayne Brook, Уильям Форсайт / William Forsythe, Рекха Шарма / Rekha Sharma, Спрэг Грэйден / Sprague Grayden--Описание: Странный человек найден в воде.... Он потерял все.... Он потерял главное - себя. Он не знает кто он и откуда. Кем был раньше и кем станет. Он не знает своего имени. Многое отличает его от обычных людей.
Сумеет ли он найти свое место в огромном мире?
В начале пилотной серии, странный человек просыпается на острове неподалёку от города Сиэтл, голый и не знающий, кто он и как туда попал. Кроме деталей своего прошлого, «Джон Доу», как он себя начинает называть, имеет доступ ко всем знаниям человечества: он знает количество выпуклостей на мячике для гольфа, точное население Уругвая, и другие малоизвестные факты. Также он обладает превосходными знаниями обо всем, от фондовых рынков до информационных технологий. В сериале Джон пытается найти следы о своем прошлом, используя свои необычные способности, и по мере сил помогая нуждающимся. Затем становится известно, что тайная международная организация под названием «Феникс» следит за каждым его шагом.--Качество: HDTVRip
Формат: AVI
Видео кодек: XviD
Аудио кодек: MP3
Видео: 576x432 (1.33:1), 25 fps, XviD build 12 ~1025 kbps avg, 0.17 bit/pixel
Аудио: Audio #1: 48 kHz, MPEG Layer 3, 2 ch, ~192.00 kbps avg
Аудио: Audio #2: 48 kHz, MPEG Layer 3, 2 ch, ~130.32 kbps avg-- --

MediaInfo

General
Complete name : E:\Сериалы новые\John Doe\John_Doe_s01_e01_HDTVRip_RUS_[1001cinema.ru].avi
Format : AVI
Format/Info : Audio Video Interleave
File size : 410 MiB
Duration : 42mn 20s
Overall bit rate mode : Variable
Overall bit rate : 1 353 Kbps
Writing application : VirtualDubModRus 1.5.10.2 (build 2540/release)
Writing library : VirtualDubMod build 2540/release
Video
ID : 0
Format : MPEG-4 Visual
Format profile : Simple@L3
Format settings, BVOP : No
Format settings, QPel : No
Format settings, GMC : No warppoints
Format settings, Matrix : Default (H.263)
Codec ID : XVID
Codec ID/Hint : XviD
Duration : 42mn 20s
Bit rate : 1 016 Kbps
Width : 576 pixels
Height : 432 pixels
Display aspect ratio : 4:3
Frame rate : 25.000 fps
Color space : YUV
Chroma subsampling : 4:2:0
Bit depth : 8 bits
Scan type : Progressive
Compression mode : Lossy
Bits/(Pixel*Frame) : 0.163
Stream size : 308 MiB (75%)
Writing library : XviD 0.0.09 (UTC 2003-03-25)
Audio #1
ID : 1
Format : MPEG Audio
Format version : Version 1
Format profile : Layer 3
Codec ID : 55
Codec ID/Hint : MP3
Duration : 42mn 20s
Bit rate mode : Constant
Bit rate : 192 Kbps
Channel count : 2 channels
Sampling rate : 48.0 KHz
Compression mode : Lossy
Stream size : 58.2 MiB (14%)
Alignment : Aligned on interleaves
Interleave, duration : 40 ms (1.00 video frame)
Interleave, preload duration : 504 ms
Writing library : LAME3.92
Encoding settings : -m s -V 4 -q 2 -lowpass 18.7 -b 192
Audio #2
ID : 2
Format : MPEG Audio
Format version : Version 1
Format profile : Layer 3
Mode : Joint stereo
Mode extension : MS Stereo
Codec ID : 55
Codec ID/Hint : MP3
Duration : 42mn 20s
Bit rate mode : Variable
Bit rate : 128 Kbps
Channel count : 2 channels
Sampling rate : 48.0 KHz
Compression mode : Lossy
Stream size : 38.4 MiB (9%)
Alignment : Aligned on interleaves
Interleave, duration : 24 ms (0.60 video frame)
Interleave, preload duration : 508 ms

Тайны сериала

В последней серии Сериала Джона Доу не совсем были открыты тайны личности и причины сверхразума Джона, но продюсеры этого сериала дали интервью TV Guide, дабы разъяснить весь смысл этого сериала:
Организация «Феникс» проводила исследования в области «посмертных знаний». Они были убеждены, что вся совокупность знаний вселенной открывается человеку в момент смерти, поэтому они, фактически, убили Джона, а затем вернули к жизни, дабы получить доступ к этим знаниям. В последнем эпизоде сериала выясняется, что один из близких друзей Джона на самом деле был руководителем организации «Феникс».
Позднее, на страницах Entertainment Weekly, продюсеры более подробно раскрыли детали замысла сценаристов.
Так, вовсе не Диггер был тем злодеем, которого разоблачили в конце сезона, в действительности, это был член «Феникса», которому посредством невероятной пластической операции придали облик Диггера.
Более того, должно было выясниться, что на самом деле члены организации «Феникс» верили в то, что Доу это новый мессия, и, на самом деле, защищали его от другой организации, задачей которой было его убийство.
Невероятные способности Джона стали результатом путешествия его души в тот мир, где есть ответы на все вопросы мироздания.
Автор популярного подкаста Diggination Алекс Альбрехт высказал интересное объяснение черно-белого зрения Джона Доу. По его мнению, человек, находясь у врат рая, получает ответы на все возможные вопросы, и после возвращения на землю, мир кажется ему бесцветным.

Список серий

1 «Пилотная серия» «Pilot»
2 «Кровные узы» «Blood Lines»
3 «Доу Ре: Мне» «Doe Re: Me»
4 «Прошлый имперфект» «Past Imperfect»
5 «Джон Два» «John Deux»
6 «Низкое искусство» «Low Art»
7 «Игры с головой» «Mind Games»
8 «Айдахо» «Idaho»
9 «Судьба во плоти» «Manifest Destiny»
10 «Скорбящий» «The Mourner»
11 «Джон мертвый по прибытию» «John D.O.A.»
12 «Мёртвый тон» «Tone Dead»
13 «Семейный человек» «Family Man»
14 «Пепел к пеплу» «Ashes to Ashes»
15 «Пси-связь» «Psychic Connection»
16 «Нелегальный чужой» «Illegal Alien»
17 «Доу или смерть» «Doe or Die»
18 «Сохранить как… Джон Доу» «Save As… John Doe»
19 «Шок для системы» «Shock to the System»
20 «Дистанционное управление» «Remote Control»
21 «Возрождение» «The Rising»

_________________
[Торрент-статистика]
[Профиль]  [ЛС] 
Показать сообщения:    
Ответить на тему

Текущее время: Сегодня 08:35

Часовой пояс: GMT + 4



Вы не можете начинать темы
Вы не можете отвечать на сообщения
Вы не можете редактировать свои сообщения
Вы не можете удалять свои сообщения
Вы не можете голосовать в опросах
Вы не можете прикреплять файлы к сообщениям
Вы не можете скачивать файлы