Реальные люди (Настоящие люди) / Akta manniskor (Real Humans) / Сезон: 2 / Серии: 1-10 из 10 (Харальд Хамрелль, Кристиан Эклёв) [2013, фантастика, драма, WEB-DLRip] MVO (BaibaKo)

Ответить на тему
 
Автор
Сообщение

awk05 ®

Пол:

Стаж: 4 года 5 месяцев

Сообщений: 1352

Репутация: 275 [+] [-]

Откуда: Западная Украина Ривне

Пост 18-Дек-2013 18:24

[Цитировать] 

--Реальные люди (Настоящие люди) / Akta manniskor (Real Humans)-- Год выпуска: 2013
Страна: Швеция
Жанр: фантастика, драма
Сезон/Серия: Сезон:2 /Серия 1-10 из 10
Продолжительность: 10 х 00:58:00
Перевод: Профессиональный многоголосый закадровый Baibako
Русские субтитры: нет
Субтитры: отсутствуют--Режиссёр: Харальд Хамрелль, Леван Акин--В ролях: Андреас Уилсон, Пиа Хальворсен, Йохан Полсен, Натали Минневик, Каре Хедебрант, Лейф Андре, Эва Роуз, Андре Сьоберг--Описание: Это фантастическая история о мире, где роботы внешне почти не отличимы от людей. Кибернетика шагнула вперед в создании искусственного интеллекта и построению люботов. Но при всей своей идеальности, люди-роботы все же отличаются некоторыми качествами. Некоторые видят в них опасность и объединяются в движение "Реальные люди". Есть и "дикие" люботы, борющиеся за свободу и электрическую подзарядку. Секретные службы и полиция ведут на них охоту...--
Перевод: Мария Матвейчук и Анна Старинец (бюро переводов "SM-Group")
Озвучка: Светлана Доманова, Юлия Котурбаш, Артемий Мирон и Александр Фурман
Обложка: Татьяна Saavick
Монтаж: Игорь Лихо--Качество: WEBRip
Формат: AVI
Видео: MPEG4, XviD, 720x400 (16/9), 25.000 fps, 1 504 Kbps (0.209 bit/pixel)
Аудио Rus: MP3, 48.0 KHz, 2 ch, 192 Kbps, CBR
Аудио Swe: MP3, 48.0 KHz, 2 ch, 192 Kbps, CBR-- --

MediaInfo

Общее
Полное имя : D:\Реальные люди (Настоящие люди) (Сезон 2) Akta manniskor (Real Humans) (2013) WEBDLRip - BaibaKo\Akta.Manniskor(Real.Humans).s02e01.WEB-DLRip.XviD.Rus.Sve.BaibaKo.tv.avi
Формат : AVI
Формат/Информация : Audio Video Interleave
Размер файла : 798 Мбайт
Продолжительность : 58 м.
Общий поток : 1903 Кбит/сек
Программа кодирования : VirtualDubMod 1.5.10.2 (build 2542/release)
Библиотека кодирования : VirtualDubMod build 2542/release
Видео
Идентификатор : 0
Формат : MPEG-4 Visual
Профиль формата : Advanced Simple@L5
Параметр BVOP формата : 2
Параметр QPel формата : Нет
Параметр GMC формата : Без точки перехода
Параметр матрицы формата : Default (H.263)
Идентификатор кодека : XVID
Идентификатор кодека/Подсказка : XviD
Продолжительность : 58 м.
Битрейт : 1504 Кбит/сек
Ширина : 720 пикселей
Высота : 400 пикселей
Соотношение сторон : 16:9
Частота кадров : 25,000 кадров/сек
Цветовое пространство : YUV
Субдискретизация насыщенности : 4:2:0
Битовая глубина : 8 бит
Тип развёртки : Прогрессивная
Метод сжатия : С потерями
Бит/(Пиксели*Кадры) : 0.209
Размер потока : 631 Мбайт (79%)
Библиотека кодирования : XviD 1.2.1 (UTC 2008-12-04)
Аудио #1
Идентификатор : 1
Формат : MPEG Audio
Версия формата : Version 1
Профиль формата : Layer 3
Режим : Joint stereo
Идентификатор кодека : 55
Идентификатор кодека/Подсказка : MP3
Продолжительность : 58 м.
Вид битрейта : Постоянный
Битрейт : 192 Кбит/сек
Каналы : 2 канала
Частота : 48,0 КГц
Метод сжатия : С потерями
Размер потока : 80,5 Мбайт (10%)
Выравнивание : Соединение по промежуткам
Продолжительность промежутка : 40 мс. (1,00 видеокадр)
Время предзагрузки промежутка : 504 мс.
Библиотека кодирования : LAME3.99r
Настройки программы : -m j -V 4 -q 2 -lowpass 18.6 -b 192
Аудио #2
Идентификатор : 2
Формат : MPEG Audio
Версия формата : Version 1
Профиль формата : Layer 3
Режим : Joint stereo
Идентификатор кодека : 55
Идентификатор кодека/Подсказка : MP3
Продолжительность : 58 м.
Вид битрейта : Постоянный
Битрейт : 192 Кбит/сек
Каналы : 2 канала
Частота : 48,0 КГц
Метод сжатия : С потерями
Размер потока : 80,5 Мбайт (10%)
Выравнивание : Соединение по промежуткам
Продолжительность промежутка : 40 мс. (1,00 видеокадр)
Время предзагрузки промежутка : 504 мс.
Библиотека кодирования : LAME3.99r
Настройки программы : -m j -V 4 -q 2 -lowpass 18.6 -b 192

Скриншоты

Раздача ведётся путём добавления новых серий

Раздача ведётся путём добавления новых серий; при каждом добавлении создаётся новый торрент. Чтобы начать докачку новой серии, пользователям необходимо сделать следующее:
(1) остановить скачивание,
(2) удалить старый торрент у себя из клиента (старые серии удалять не надо),
(3) скачать новый торрент и запустить его у себя в клиенте вместо старого, при этом указать клиенту путь в старую папку куда и должно происходить скачивание новых серий.
Ваш клиент при этом должен произвести хеширование (проверку) старой папки (если не производит сам - помогите ему сделать это), и будет докачивать только те серии которых у вас ещё нет. Старые серии при этом не удаляются, а продолжают раздаваться!
Eсли вы уже удалили старые серии, то предотвратить повторную закачку старых серий можно, отжав галочку в соответствующих местах при запуске нового торрента. По возможности, желательно не удалять старые серии как можно дольше чтобы релизёр не столько продолжал раздавать старые серии, а смог сконцентрироваться на новых.

_________________


Последний раз редактировалось: awk05 (2014-02-18 19:35), всего редактировалось 8 раз(а)
[Торрент-статистика]
[Профиль]  [ЛС] 

Chet

Пол:

Стаж: 5 лет 1 месяц

Сообщений: 1866

Репутация: 363 [+] [-]

Откуда: UA

Пост 07-Янв-2014 19:01 (спустя 20 дней)

[Цитировать] 

39399люботы
боты любви? ab
пошёл качать 1-й сезон сперва ab
[Торрент-статистика]
[Профиль]  [ЛС] 
Показать сообщения:    
Ответить на тему

Текущее время: Сегодня 16:42

Часовой пояс: GMT + 4



Вы не можете начинать темы
Вы не можете отвечать на сообщения
Вы не можете редактировать свои сообщения
Вы не можете удалять свои сообщения
Вы не можете голосовать в опросах
Вы не можете прикреплять файлы к сообщениям
Вы не можете скачивать файлы