Реальные люди (Настоящие люди) / Akta manniskor (Real Humans) / Сезон: 1 / Серии: 1-10 (10) (Харальд Хамрелль, Леван Акин) [2012 г., фантастика, драма, WEBRip] MVO (Baibako)

Ответить на тему
 
Автор
Сообщение

awk05 ®

Пол:

Стаж: 4 года 5 месяцев

Сообщений: 1352

Репутация: 275 [+] [-]

Откуда: Западная Украина Ривне

Пост 18-Дек-2013 18:12

[Цитировать] 

--Реальные люди (Настоящие люди) / Akta manniskor (Real Humans)-- Год выпуска: 2012
Страна: Швеция
Жанр: фантастика, драма
Сезон/Серия: Сезон:1 /Серия 1-10 из 10
Продолжительность: 10 х 00:58:00
Перевод: Профессиональный многоголосый закадровый Baibako
Русские субтитры: нет
Субтитры: отсутствуют--Режиссёр: Харальд Хамрелль, Леван Акин--В ролях: Андреас Уилсон, Пиа Хальворсен, Йохан Полсен, Натали Минневик, Каре Хедебрант, Лейф Андре, Эва Роуз, Андре Сьоберг--Описание: Это фантастическая история о мире, где роботы внешне почти не отличимы от людей. Кибернетика шагнула вперед в создании искусственного интеллекта и построению люботов. Но при всей своей идеальности, люди-роботы все же отличаются некоторыми качествами. Некоторые видят в них опасность и объединяются в движение "Реальные люди". Есть и "дикие" люботы, борющиеся за свободу и электрическую подзарядку. Секретные службы и полиция ведут на них охоту...--
Перевод: Мария Матвейчук и Анна Старинец (бюро переводов "SM-Group")
Озвучка: Светлана Доманова, Юлия Котурбаш, Артемий Мирон и Александр Фурман
Обложка: Татьяна Saavick
Монтаж: Игорь Лихо--Качество: WEBRip
Формат: AVI
Видео: MPEG4, XviD, 720x400 (16/9), 25.000 fps, 1 504 Kbps (0.209 bit/pixel)
Аудио Rus: MP3, 48.0 KHz, 2 ch, 192 Kbps, CBR
Аудио Swe: MP3, 48.0 KHz, 2 ch, 192 Kbps, CBR--

MI

General
Complete name : I:\ЗАКАЧКИ\Реальные люди Сезон 1 (Baibako)\Akta.Manniskor.s01e01.WEB-DLRip.XviD.Rus.Sve.BaibaKo.tv.avi
Format : AVI
Format/Info : Audio Video Interleave
File size : 795 MiB
Duration : 58mn 28s
Overall bit rate : 1 902 Kbps
Writing application : VirtualDubMod 1.5.10.2 (build 2542/release)
Writing library : VirtualDubMod build 2542/release
Video
ID : 0
Format : MPEG-4 Visual
Format profile : Advanced Simple@L5
Format settings, BVOP : 2
Format settings, QPel : No
Format settings, GMC : No warppoints
Format settings, Matrix : Default (H.263)
Codec ID : XVID
Codec ID/Hint : XviD
Duration : 58mn 28s
Bit rate : 1 504 Kbps
Width : 720 pixels
Height : 400 pixels
Display aspect ratio : 16:9
Frame rate : 25.000 fps
Color space : YUV
Chroma subsampling : 4:2:0
Bit depth : 8 bits
Scan type : Progressive
Compression mode : Lossy
Bits/(Pixel*Frame) : 0.209
Stream size : 629 MiB (79%)
Writing library : XviD 1.2.1 (UTC 2008-12-04)
Audio #1
ID : 1
Format : MPEG Audio
Format version : Version 1
Format profile : Layer 3
Mode : Joint stereo
Mode extension : MS Stereo
Codec ID : 55
Codec ID/Hint : MP3
Duration : 58mn 28s
Bit rate mode : Constant
Bit rate : 192 Kbps
Channel(s) : 2 channels
Sampling rate : 48.0 KHz
Compression mode : Lossy
Stream size : 80.3 MiB (10%)
Alignment : Aligned on interleaves
Interleave, duration : 40 ms (1.00 video frame)
Interleave, preload duration : 504 ms
Writing library : LAME3.99r
Encoding settings : -m j -V 4 -q 2 -lowpass 18.6 -b 192
Audio #2
ID : 2
Format : MPEG Audio
Format version : Version 1
Format profile : Layer 3
Mode : Joint stereo
Mode extension : MS Stereo
Codec ID : 55
Codec ID/Hint : MP3
Duration : 58mn 28s
Bit rate mode : Constant
Bit rate : 192 Kbps
Channel(s) : 2 channels
Sampling rate : 48.0 KHz
Compression mode : Lossy
Stream size : 80.3 MiB (10%)
Alignment : Aligned on interleaves
Interleave, duration : 40 ms (1.00 video frame)
Interleave, preload duration : 504 ms

Скриншоты




_________________
[Торрент-статистика]
[Профиль]  [ЛС] 

Chet

Пол:

Стаж: 5 лет 1 месяц

Сообщений: 1866

Репутация: 363 [+] [-]

Откуда: UA

Пост 07-Янв-2014 19:04 (спустя 20 дней)

[Цитировать] 

вообще-то это очень удобно - снимать про "люботов"; отпадает необходимость в любых спецэффектах
[Торрент-статистика]
[Профиль]  [ЛС] 

awk05 ®

Пол:

Стаж: 4 года 5 месяцев

Сообщений: 1352

Репутация: 275 [+] [-]

Откуда: Западная Украина Ривне

Пост 08-Янв-2014 02:11 (спустя 7 часов)

[Цитировать] 

я пробовал смотреть, хватило на 2 серии

_________________
[Торрент-статистика]
[Профиль]  [ЛС] 
Показать сообщения:    
Ответить на тему

Текущее время: Сегодня 04:20

Часовой пояс: GMT + 4



Вы не можете начинать темы
Вы не можете отвечать на сообщения
Вы не можете редактировать свои сообщения
Вы не можете удалять свои сообщения
Вы не можете голосовать в опросах
Вы не можете прикреплять файлы к сообщениям
Вы не можете скачивать файлы