Город гангстеров / Mob City / сезон 1 / серии 1-6 из 6 (Фрэнк Дарабонт, Гай Ферленд) [2013 г., драма, WEB-DLRip] (LostFilm)

Ответить на тему
 
Автор
Сообщение

3232fox ®

Пол:

Стаж: 3 года 9 месяцев

Сообщений: 614

Репутация: 423 [+] [-]

Откуда: Крым,Россия

Пост 16-Дек-2013 01:19

[Цитировать] 

-Город гангстеров / Mob City --Год выпуска: 2013
Страна: США
Жанр: драма
Продолжительность: ~ 00:48:00
Перевод: Профессиональный (многоголосый, закадровый) LostFilm--Режиссер: Фрэнк Дарабонт, Гай Ферленд--В ролях: Джон Бернтал, Эдвард Бёрнс, Майло Вентимилья, Нил МакДонаф, Алекса Давалос, Джеффри ДеМанн, Роберт Неппер, Джереми Люк, Грегори Итцин, Иддо Голдберг--Описание: Реальная история многолетнего конфликта между департаментом полиции Лос-Анджелеса под руководством Уильяма Паркера и безжалостных преступников во главе с Микки Коэном, боксёром, который взошёл на вершину криминального мира этого города.Сериал основан на книге Джона Бантина «L.A. Noir: The Struggle For The Soul Of America’s Most Seductive City».-- --Сериал должен был называться LA Noir, по мотивам книги Джона Бантина. Но компания Rockstar Games, с видеоигрой под названием LA Noire, пригрозила засудить TNT.
--Тип релиза: WEB-DLRip
Контейнер: AVI
Видео кодек: XviD
Аудио кодек: MP3 (MPEG1 Layer 3)
Видео: ~ 1500 kbps, 720x400, 23,976 кадра/сек
Аудио: RUS: mp3, 48.0 KHz, 2 ch, 192 kbps--

Скриншоты

MI

General
Complete name : G:\видео\Mob.City...S01\Mob.City.S01E01.rus.LostFilm.TV.avi
Format : AVI
Format/Info : Audio Video Interleave
File size : 596 MiB
Duration : 48mn 22s
Overall bit rate : 1 722 Kbps
Writing application : Nandub v1.0rc2
Writing library : Nandub build 1853/release
Video
ID : 0
Format : MPEG-4 Visual
Format profile : Simple@L3
Format settings, BVOP : No
Format settings, QPel : No
Format settings, GMC : No warppoints
Format settings, Matrix : Default (H.263)
Codec ID : XVID
Codec ID/Hint : XviD
Duration : 48mn 22s
Bit rate : 1 522 Kbps
Width : 720 pixels
Height : 400 pixels
Display aspect ratio : 16:9
Frame rate : 23.976 fps
Color space : YUV
Chroma subsampling : 4:2:0
Bit depth : 8 bits
Scan type : Progressive
Compression mode : Lossy
Bits/(Pixel*Frame) : 0.220
Stream size : 527 MiB (88%)
Writing library : XviD 1.2.1 (UTC 2008-12-04)
Audio
ID : 1
Format : MPEG Audio
Format version : Version 1
Format profile : Layer 3
Mode : Joint stereo
Codec ID : 55
Codec ID/Hint : MP3
Duration : 48mn 22s
Bit rate mode : Variable
Bit rate : 192 Kbps
Channel(s) : 2 channels
Sampling rate : 48.0 KHz
Compression mode : Lossy
Stream size : 64.7 MiB (11%)
Alignment : Aligned on interleaves
Interleave, duration : 24 ms (0.58 video frame)
Interleave, preload duration : 542 ms
Writing library : LAME3.97b
Encoding settings : -m j -V 4 -q 3 -lowpass 18.6 --abr 192


Последний раз редактировалось: 3232fox (2014-01-03 15:32), всего редактировалось 3 раз(а)
[Торрент-статистика]
[Профиль]  [ЛС] 

3232fox ®

Пол:

Стаж: 3 года 9 месяцев

Сообщений: 614

Репутация: 423 [+] [-]

Откуда: Крым,Россия

Пост 23-Дек-2013 23:11 (спустя 7 дней)

[Цитировать] 

Добавлена 3 серия
[Торрент-статистика]
[Профиль]  [ЛС] 

ArtZak

Пол:

Стаж: 5 лет 1 месяц

Сообщений: 3008

Репутация: 1363 [+] [-]

Откуда: Россия

Пост 23-Дек-2013 23:22 (спустя 10 минут)

[Цитировать] 

3232fox, приехал и сразу релиз обновил! Молодец! +3!
[Торрент-статистика]
[Профиль]  [ЛС] 

3232fox ®

Пол:

Стаж: 3 года 9 месяцев

Сообщений: 614

Репутация: 423 [+] [-]

Откуда: Крым,Россия

Пост 23-Дек-2013 23:28 (спустя 6 минут)

[Цитировать] 

398733232fox, приехал и сразу релиз обновил! Молодец! +3!
Ну соскучился уже
[Торрент-статистика]
[Профиль]  [ЛС] 

ArtZak

Пол:

Стаж: 5 лет 1 месяц

Сообщений: 3008

Репутация: 1363 [+] [-]

Откуда: Россия

Пост 23-Дек-2013 23:35 (спустя 7 минут)

[Цитировать] 

39874Ну соскучился уже
Мы тоже соскучились ab
[Торрент-статистика]
[Профиль]  [ЛС] 

3232fox ®

Пол:

Стаж: 3 года 9 месяцев

Сообщений: 614

Репутация: 423 [+] [-]

Откуда: Крым,Россия

Пост 30-Дек-2013 01:12 (спустя 6 дней)

[Цитировать] 

Финал
[Торрент-статистика]
[Профиль]  [ЛС] 
Показать сообщения:    
Ответить на тему

Текущее время: Сегодня 10:53

Часовой пояс: GMT + 4



Вы не можете начинать темы
Вы не можете отвечать на сообщения
Вы не можете редактировать свои сообщения
Вы не можете удалять свои сообщения
Вы не можете голосовать в опросах
Вы не можете прикреплять файлы к сообщениям
Вы не можете скачивать файлы