Давным-давно / Однажды в сказке / Once upon a time / сезон 3 / серия 1-22 из (22) (Грег Биман, Марк Майлод, Дин Уайт) [2013 г., Фэнтэзи, WEB-DLRip] |Кубик в кубе|

Ответить на тему
 
Автор
Сообщение

3232fox ®

Пол:

Стаж: 3 года 8 месяцев

Сообщений: 614

Репутация: 423 [+] [-]

Откуда: Крым,Россия

Пост 10-Дек-2013 03:52

[Цитировать] 

-Давным-давно / Однажды в сказке / Once upon a time--Год выпуска: 2013
Страна: США
Жанр: Фэнтэзи
Продолжительность: ~ 00:45:00
Перевод: Профессиональный (двухголосый)|Кубик в кубе|--Режиссер: Грег Биман, Марк Майлод, Дин Уайт--В ролях: Джиннифер Гудвин, Дженнифер Моррисон, Роберт Карлайл, Лана Паррилла, Джаред Гилмор,
Джошуа Даллас, Рафаэль Сбардж, Меган Ори, Джеми Дорнан, Беверли Эллиотт--Описание: Сюжет фэнтези разворачивается в двух мирах - современном и сказочном. Беззаботная жизнь 28-летней Эммы Свон меняется, когда ее 10-летний сын Генри, от которого она отказалась много лет назад, находит Эмму и объявляет, что она является дочерью Прекрасного Принца и Белоснежки. Само собой разумеется, у мальчишки нет никаких сомнений, что параллельно нашему существует альтернативный сказочный мир – город Сторибрук, в котором в итоге оказывается Эмма. Постепенно героиня привязывается к необычному мальчику и странному городу, жители которого «забыли», кем они были в прошлом. А все из-за проклятия Злой Королевы (по совместительству приемной матери Генри), с помощью которого колдунья остановила время в сказочной стране. Однако стоит протянуть руку - и сказка оживет. Эпическая битва за будущее двух миров начинается, но, чтобы одержать победу, Эмме придется принять свою судьбу...-- --Тип релиза: WEB-DLRip
Контейнер: AVI
Видео кодек: XviD
Аудио кодек:MP3
Видео: 624x352 (1.76:1), 23.976 fps, XviD build 65 ~1324 kbps avg, 0.20 bit/pixel
Аудио: 48 kHz, MPEG Layer 3, 2 ch, ~128.00 kbps avg

Скриншоты

MI

G:\видео\Once Upon A Time Season 3 Kybik v Kybe\Once.Upon.A.Time.s03e01.rus.eng.CasStudio.TV.avi
General
Complete name : G:\видео\Once Upon A Time Season 3 Kybik v Kybe\Once.Upon.A.Time.s03e01.rus.eng.CasStudio.TV.avi
Format : AVI
Format/Info : Audio Video Interleave
File size : 449 MiB
Duration : 42mn 55s
Overall bit rate : 1 462 Kbps
Writing application : VirtualDubMod 1.5.10.2 (build 2540/release)
Writing library : VirtualDubMod build 2540/release
Video #0
ID : 0
Format : MPEG-4 Visual
Format profile : Advanced Simple@L5
Format settings, BVOP : Yes
Format settings, QPel : No
Format settings, GMC : No warppoints
Format settings, Matrix : Default (H.263)
Codec ID : XVID
Codec ID/Hint : XviD
Duration : 42mn 55s
Bit rate : 1 000 Kbps
Width : 624 pixels
Height : 352 pixels
Display aspect ratio : 16:9
Frame rate : 23.976 fps
Resolution : 8 bits
Colorimetry : 4:2:0
Scan type : Progressive
Bits/(Pixel*Frame) : 0.190
Stream size : 307 MiB (68%)
Writing library : XviD 65
Audio #1
ID : 1
Format : MPEG Audio
Format version : Version 1
Format profile : Layer 3
Codec ID : 55
Codec ID/Hint : MP3
Duration : 42mn 55s
Bit rate mode : Constant
Bit rate : 224 Kbps
Channel(s) : 2 channels
Sampling rate : 48.0 KHz
Stream size : 68.8 MiB (15%)
Alignment : Aligned on interleaves
Interleave, duration : 42 ms (1.00 video frame)
Interleave, preload duration : 504 ms
Audio #2
ID : 2
Format : MPEG Audio
Format version : Version 1
Format profile : Layer 3
Mode : Joint stereo
Format_Settings_ModeExtension : MS Stereo
Codec ID : 55
Codec ID/Hint : MP3
Duration : 42mn 55s
Bit rate mode : Constant
Bit rate : 224 Kbps
Channel(s) : 2 channels
Sampling rate : 48.0 KHz
Stream size : 68.8 MiB (15%)
Alignment : Aligned on interleaves
Interleave, duration : 42 ms (1.00 video frame)
Interleave, preload duration : 504 ms
Writing library : LAME3.99r
Encoding settings : -m j -V 4 -q 2 -lowpass 19.4 -b 224


Последний раз редактировалось: 3232fox (2016-03-13 14:31), всего редактировалось 8 раз(а)
[Торрент-статистика]
[Профиль]  [ЛС] 

3232fox ®

Пол:

Стаж: 3 года 8 месяцев

Сообщений: 614

Репутация: 423 [+] [-]

Откуда: Крым,Россия

Пост 19-Дек-2013 19:13 (спустя 9 дней)

[Цитировать] 

Добавлена 9 серия
[Торрент-статистика]
[Профиль]  [ЛС] 

ArtZak

Пол:

Стаж: 5 лет 1 месяц

Сообщений: 3008

Репутация: 1363 [+] [-]

Откуда: Россия

Пост 19-Дек-2013 19:36 (спустя 22 минуты)

[Цитировать] 

3232fox, чего то 2 пикселей по ширине на скриншотах не хватает.... Исправляем! ab
[Торрент-статистика]
[Профиль]  [ЛС] 

3232fox ®

Пол:

Стаж: 3 года 8 месяцев

Сообщений: 614

Репутация: 423 [+] [-]

Откуда: Крым,Россия

Пост 20-Дек-2013 00:31 (спустя 4 часа)

[Цитировать] 

394533232fox, чего то 2 пикселей по ширине на скриншотах не хватает.... Исправляем! ab
Сейчас исправим
[Торрент-статистика]
[Профиль]  [ЛС] 

ArtZak

Пол:

Стаж: 5 лет 1 месяц

Сообщений: 3008

Репутация: 1363 [+] [-]

Откуда: Россия

Пост 20-Дек-2013 01:05 (спустя 33 минуты)

[Цитировать] 

39500Сейчас исправим
Все ОК! Золото!
[Торрент-статистика]
[Профиль]  [ЛС] 

3232fox ®

Пол:

Стаж: 3 года 8 месяцев

Сообщений: 614

Репутация: 423 [+] [-]

Откуда: Крым,Россия

Пост 20-Дек-2013 01:06 (спустя 42 секунды)

[Цитировать] 

39503
39500Сейчас исправим
Все ОК! Золото!
спасибки дружище
[Торрент-статистика]
[Профиль]  [ЛС] 

ArtZak

Пол:

Стаж: 5 лет 1 месяц

Сообщений: 3008

Репутация: 1363 [+] [-]

Откуда: Россия

Пост 20-Дек-2013 01:10 (спустя 4 минуты)

[Цитировать] 

3232fox, +3 забыл поставить! Держи!
[Торрент-статистика]
[Профиль]  [ЛС] 

3232fox ®

Пол:

Стаж: 3 года 8 месяцев

Сообщений: 614

Репутация: 423 [+] [-]

Откуда: Крым,Россия

Пост 04-Янв-2014 03:11 (спустя 15 дней)

[Цитировать] 

Конец переложил
[Торрент-статистика]
[Профиль]  [ЛС] 
Показать сообщения:    
Ответить на тему

Текущее время: Сегодня 08:35

Часовой пояс: GMT + 4



Вы не можете начинать темы
Вы не можете отвечать на сообщения
Вы не можете редактировать свои сообщения
Вы не можете удалять свои сообщения
Вы не можете голосовать в опросах
Вы не можете прикреплять файлы к сообщениям
Вы не можете скачивать файлы