Теория Большого Взрыва / The Big Bang Theory / Сезон: 1 / Серии: 1-11 (17) (Джеймс Барроус) [2007 г., Комедия, BDRip l 720p] (Novamedia, Кураж-Бамбей, Paramount Comedy (Кураж-Бамбей v2), НТВ, NovaFilmTV)

Ответить на тему
 
Автор
Сообщение

kaliasa ®

Пол:

Стаж: 6 лет 2 месяца

Сообщений: 113

Репутация: 84 [+] [-]

Пост 20-Авг-2012 23:08

[Цитировать] 

Теория Большого Взрыва / The Big Bang Theory-Год выпуска: 2007
Страна: США
Жанр: комедия
Продолжительность: ~00:22:00 (одна серия)
Перевод:
• Профессиональный (многоголосый, закадровый) Новамедиа по заказу СТС,
• Профессиональный (одноголосый, закадровый) Кураж-Бамбей (1 версия),
• Профессиональный (одноголосый, закадровый) Кураж-Бамбей по заказу Paramount Comedy (2012),
• Профессиональный (двухголосый, закадровый) НТВ,
• Профессиональный (одноголосый, закадровый) NovafilmTV [1-2 серии].
Русские субтитры: есть
Субтитры: русские, английские-Режиссер: Джеймс Барроус-В ролях: Джонни Галэки (Леонард), Джим Парсонс (Шелдон), Кейли Куоко (Пэнни), Саймон Хелберг (Говард), Кунал Нэйэр (Радж)-Описание: Два блестящих физика, Леонард и Шелдон, «великие умы», которые понимают как «работает вселенная». Но их гениальность ничуть не помогает им общаться с людьми, особенно с женщинами. Всё начинает меняться, когда напротив них поселяется красавица Пенни. Когда Леонард и Шелдон встречают Пенни, Леонард сразу же начинает интересоваться ею. Он видит в общении с Пенни огромную перспективу, вплоть до любви, однако Шелдон понимает, что мечтам его друга не суждено сбыться. Стоит также отметить пару странных друзей этих физиков: Воловец, который любит употреблять фразы на разных языках, включая русский, и Раджеш Кутрапали, теряющий дар речи при виде женщин.-Тип релиза: BDRip
Контейнер: MKV
Видео кодек: H264 (AVC)
Аудио кодек: AC3 (Dolby Digital)
Видео: MPEG4 Video (H264) 1280x720 23.976fps 5600Kbps 0.407 (bit/pixel)
Аудио:
русская (Novamedia по заказу СТС): Dolby AC3 48000Hz stereo 192kbps,
русская (Кураж-Бамбей, 1 версия): Dolby AC3 48000Hz stereo 192kbps,
русская (Кураж-Бамбей по заказу Paramount Comedy, 2012): Dolby AC3 48000Hz stereo 192kbps,
русская (НТВ): Dolby AC3 48000Hz stereo 192kbps,
русская (VO NovaFilmTV): Dolby AC3 48000Hz stereo 192kbps, [отдельно]
оригинал: Dolby AC3 48000Hz 6ch 640Kbps
-

Скриншоты

-

Список серий:

1 сезон:
01. Pilot
02. The Big Bran Hypothesis
03. The Fuzzy Boots Corollary
04. The Luminous Fish Effect
05. The Hamburger Postulate
06. The Middle-Earth Paradigm
07. The Dumpling Paradox
08. The Grasshopper Experiment
09. The Cooper-Hofstadter Polarization
10. The Loobenfeld Decay
11. The Pancake Batter Anomaly

MI

Код:
Общее
Уникальный идентификатор         : 193533936512369928073342018330531103129 (0x919947C591F4ECF39D1A520EDA7E8199)
Полное имя                       : O:\HD Video\The Big Bang Theory (BDRip l 720p l SerGoLeOne)\1 season\01. Pilot.mkv
Формат                           : Matroska
Версия формата                   : Version 1
Размер файла                     : 1,64 Гбайт
Продолжительность                : 22 м.
Общий поток                      : 10,2 Мбит/сек
Дата кодирования                 : UTC 2012-07-15 13:25:31
Программа кодирования            : mkvmerge v2.3.0 ('Freak U') built on Sep  8 2008 18:32:16
Библиотека кодирования           : libebml v0.7.7 + libmatroska v0.8.1
Видео
Идентификатор                    : 1
Формат                           : AVC
Формат/Информация                : Advanced Video Codec
Профиль формата                  : High@L4.1
Параметр CABAC формата           : Да
Параметр ReFrames формата        : 9 кадров
Идентификатор кодека             : V_MPEG4/ISO/AVC
Продолжительность                : 22 м.
Битрейт                          : 9000 Кбит/сек
Ширина                           : 1280 пикселей
Высота                           : 720 пикселей
Соотношение сторон               : 16:9
Частота кадров                   : 23,976 кадра/сек
Цветовое пространство            : YUV
Субдискретизация насыщенности    : 4:2:0
Битовая глубина                  : 8 бит
Тип развёртки                    : Прогрессивная
Бит/(Пиксели*Кадры)              : 0.407
Размер потока                    : 1,41 Гбайт (86%)
Библиотека кодирования           : x264 core 116 r2057 0ba8a9c
Настройки программы              : cabac=1 / ref=9 / deblock=1:-3:-3 / analyse=0x3:0x133 / me=umh / subme=10 / psy=1 / psy_rd=1.00:0.00 / mixed_ref=1 / me_range=32 / chroma_me=1 / trellis=2 / 8x8dct=1 / cqm=0 / deadzone=21,11 / fast_pskip=0 / chroma_qp_offset=-2 / threads=14 / sliced_threads=0 / nr=0 / decimate=0 / interlaced=0 / bluray_compat=0 / constrained_intra=0 / bframes=7 / b_pyramid=2 / b_adapt=2 / b_bias=0 / direct=3 / weightb=1 / open_gop=0 / weightp=2 / keyint=250 / keyint_min=23 / scenecut=40 / intra_refresh=0 / rc_lookahead=40 / rc=2pass / mbtree=0 / bitrate=9000 / ratetol=1.0 / qcomp=0.65 / qpmin=0 / qpmax=40 / qpstep=4 / cplxblur=20.0 / qblur=0.5 / vbv_maxrate=50000 / vbv_bufsize=50000 / nal_hrd=none / ip_ratio=1.25 / pb_ratio=1.25 / aq=1:0.65
Язык                             : English
Аудио #1
Идентификатор                    : 2
Формат                           : AC-3
Формат/Информация                : Audio Coding 3
Расширение режима                : CM (complete main)
Идентификатор кодека             : A_AC3
Продолжительность                : 22 м.
Вид битрейта                     : Постоянный
Битрейт                          : 192 Кбит/сек
Каналы                           : 2 канала
Расположение каналов             : Front: L R
Частота                          : 48,0 КГц
Битовая глубина                  : 16 бит
Метод сжатия                     : С потерями
Размер потока                    : 31,5 Мбайт (2%)
Заголовок                        : Novamedia (CTC)
Язык                             : Russian
Аудио #2
Идентификатор                    : 3
Формат                           : AC-3
Формат/Информация                : Audio Coding 3
Расширение режима                : CM (complete main)
Идентификатор кодека             : A_AC3
Продолжительность                : 22 м.
Вид битрейта                     : Постоянный
Битрейт                          : 192 Кбит/сек
Каналы                           : 2 канала
Расположение каналов             : Front: L R
Частота                          : 48,0 КГц
Битовая глубина                  : 16 бит
Метод сжатия                     : С потерями
Размер потока                    : 31,5 Мбайт (2%)
Заголовок                        : HTB
Язык                             : Russian
Аудио #3
Идентификатор                    : 4
Формат                           : AC-3
Формат/Информация                : Audio Coding 3
Расширение режима                : CM (complete main)
Идентификатор кодека             : A_AC3
Продолжительность                : 22 м.
Вид битрейта                     : Постоянный
Битрейт                          : 192 Кбит/сек
Каналы                           : 2 канала
Расположение каналов             : Front: L R
Частота                          : 48,0 КГц
Битовая глубина                  : 16 бит
Метод сжатия                     : С потерями
Размер потока                    : 31,5 Мбайт (2%)
Заголовок                        : Kuraj-Bambey v1
Язык                             : Russian
Аудио #4
Идентификатор                    : 5
Формат                           : AC-3
Формат/Информация                : Audio Coding 3
Расширение режима                : CM (complete main)
Идентификатор кодека             : A_AC3
Продолжительность                : 22 м.
Вид битрейта                     : Постоянный
Битрейт                          : 640 Кбит/сек
Каналы                           : 6 каналов
Расположение каналов             : Front: L C R, Side: L R, LFE
Частота                          : 48,0 КГц
Битовая глубина                  : 16 бит
Метод сжатия                     : С потерями
Размер потока                    : 105 Мбайт (6%)
Заголовок                        : Original
Язык                             : English
Текст
Идентификатор                    : 6
Формат                           : UTF-8
Идентификатор кодека             : S_TEXT/UTF8
Идентификатор кодека/Информация  : UTF-8 Plain Text
Язык                             : English
Меню
00:00:00.000                     : en:00:00:00.000
00:06:24.426                     : en:00:06:24.426
00:15:49.115                     : en:00:15:49.115
00:21:37.671                     : en:00:21:37.671
00:22:29.557                     : en:00:22:29.557

Внимание! Раздача ведётся путём добавления новых серий

Внимание! Раздача ведётся путём добавления новых серий; при каждом добавлении создаётся новый торрент. Чтобы начать докачку новой серии, пользователям необходимо сделать следующее:
(1) остановить скачивание,
(2) удалить старый торрент у себя из клиента (старые серии удалять не надо),
(3) скачать новый торрент и запустить его у себя в клиенте вместо старого, при этом указать клиенту путь в старую папку куда и должно происходить скачивание новых серий.
Ваш клиент при этом должен произвести хеширование (проверку) старой папки (если не производит сам - помогите ему сделать это), и будет докачивать только те серии которых у вас ещё нет. Старые серии при этом не удаляются, а продолжают раздаваться!
Eсли вы уже удалили старые серии, то предотвратить повторную закачку старых серий можно, отжав галочку в соответствующих местах при запуске нового торрента. По возможности, желательно не удалять старые серии как можно дольше чтобы релизёр не столько продолжал раздавать старые серии, а смог сконцентрироваться на новых.
[Торрент-статистика]
[Профиль]  [ЛС] 
Показать сообщения:    
Ответить на тему

Текущее время: Сегодня 08:05

Часовой пояс: GMT + 4



Вы не можете начинать темы
Вы не можете отвечать на сообщения
Вы не можете редактировать свои сообщения
Вы не можете удалять свои сообщения
Вы не можете голосовать в опросах
Вы не можете прикреплять файлы к сообщениям
Вы не можете скачивать файлы