Сверхъестественное / Supernatural / Сезон: 8 / Серии: 01-23 из (23) (Филип Сгриккиа, Джеймс Л. Конуэй, Дженсен Эклс) [2012, Ужасы, триллер, мистика, HDTVRip] MVO (DreamRecords)

Ответить на тему
 
Автор
Сообщение

Волк ®

Пол:

Стаж: 6 лет 1 месяц

Сообщений: 692

Репутация: 297 [+] [-]

Откуда: Армения

Пост 19-Окт-2012 21:23

[Цитировать] 


Сезон: 8 | Серий: 1-23 из (23)
«Только мы знаем,что темноты стоит бояться»
- Год выпуска: 2012
Страна: США
Жанр: Ужасы, триллер, мистика
Продолжительность: 00:42:05
Перевод: Любительский многоголосый закадровый - [DreamRecords]
Русские субтитры: нет
Субтитры: отсутствуют-Режиссёр: Филип Сгриккиа, Джеймс Л. Конуэй, Дженсен Эклс-В ролях: Джаред Падалеки, Дженсен Эклс, Джим Бивер, Миша Коллинз, Митч Пелеги, Марк Шеппард, Марк Пеллегрино и др-Описание: Дин выбирается из чистилища, но не один. Он отправляется прямиком к Сэму, однако воссоединение семьи проходит не совсем так, как ему представлялось. Сэм бросает все ради того, чтобы быть со своим братом, но расстаться с целой жизнью, что он прожил без Дина, оказывается несколько сложнее, чем он ожидал. Дин и Сэм ищут Кевина, которому удалось сбежать из-под надзора Кроули, но все только усложняется, когда Кевин говорит им, чего хочет Кроули.--Доп. информация:
Автор перевода: Ольга Галайда
Голоса: Christh, Milla, Abarat
Монтаж и сведение звука: LeX
Автор рипа: LeX-Сэмпл--Качество: HDTVRip
Формат: AVI
Видео кодек: XviD
Аудио кодек: MP3
Видео: 720x400, 23.976 fps, 1 195 Kbps, 0.159 bit/pixel
Аудио: MP3, 48 kHz, 2 ch, 192 kbps--

MI

Код:
Format : AVI
Format/Info : Audio Video Interleave
File size : 390 MiB
Duration : 42mn 2s
Overall bit rate : 1 296 Kbps
Writing application : VirtualDubModRus 1.5.10.2 (build 2542/release)
Writing library : VirtualDubMod build 2542/release
Video
ID : 0
Format : MPEG-4 Visual
Format profile : Advanced Simple@L5
Format settings, BVOP : 1
Format settings, QPel : No
Format settings, GMC : No warppoints
Format settings, Matrix : Default (MPEG)
Codec ID : XVID
Codec ID/Hint : XviD
Duration : 42mn 2s
Bit rate : 1 195 Kbps
Width : 720 pixels
Height : 400 pixels
Display aspect ratio : 16:9
Frame rate : 23.976 fps
Color space : YUV
Chroma subsampling : 4:2:0
Bit depth : 8 bits
Scan type : Progressive
Compression mode : Lossy
Bits/(Pixel*Frame) : 0.159
Stream size : 329 MiB (84%)
Writing library : XviD 64
Audio
ID : 1
Format : MPEG Audio
Format version : Version 1
Format profile : Layer 3
Mode : Joint stereo
Codec ID : 55
Codec ID/Hint : MP3
Duration : 42mn 2s
Bit rate mode : Constant
Bit rate : 192 Kbps
Channel(s) : 2 channels
Sampling rate : 48.0 KHz
Compression mode : Lossy
Stream size : 57.7 MiB (15%)
Alignment : Aligned on interleaves
Interleave, duration : 42 ms (1.00 video frame)
Interleave, preload duration : 504 ms

Скриншоты

Внимание! Раздача ведется путем добавления серий:

Код:
Внимание! Раздача ведётся путём добавления новых серий; при каждом добавлении создётся новый торрент. Чтобы начать докачку новой серии, пользователям необходимо сделать следующее:
(1) остановить скачивание,
(2) удалить старый торрент у себя из клиента (старые серии удалять не надо),
(3) скачать новый торрент и запустить его у себя в клиенте вместо старого, при этом указать клиенту путь в старую папку куда и должно происходить скачивание новых серий.
Ваш клиент при этом должен произвести хеширование (проверку) старой папки (если не производит сам - помогите ему сделать это), и будет докачивать только те серии которых у вас ещё нет. Старые серии при этом не удаляются, а продолжают раздаваться!
Eсли вы уже удалили старые серии, то предотвратить повторную закачку старых серий можно, отжав галочку в соответсвующих местах при запуске нового торрента. По возможности, желательно не удалять старые серии как можно дольше чтобы релизёр не столько продолжал раздавать старые серии, а смог сконцентрироваться на новых.
- 18.07.2013 Добавлена 23 серия. -Не забываем говорить "Спасибо!" -


Последний раз редактировалось: Волк (2013-07-18 22:10), всего редактировалось 14 раз(а)
[Торрент-статистика]
[Профиль]  [ЛС] 

Волк ®

Пол:

Стаж: 6 лет 1 месяц

Сообщений: 692

Репутация: 297 [+] [-]

Откуда: Армения

Пост 20-Окт-2012 00:05 (спустя 2 часа 41 минута)

[Цитировать] 

Может кто проверит(
[Торрент-статистика]
[Профиль]  [ЛС] 

nova1980

Пол:

Стаж: 6 лет

Сообщений: 818

Репутация: 523 [+] [-]

Откуда: Одесса Мама

Пост 20-Окт-2012 00:10 (спустя 4 минуты)

[Цитировать] 

18883Может кто проверит(
Ндя.... Было бы кого проверять!

_________________
Мои Раздачи
[Торрент-статистика]
[Профиль]  [ЛС] 

Волк ®

Пол:

Стаж: 6 лет 1 месяц

Сообщений: 692

Репутация: 297 [+] [-]

Откуда: Армения

Пост 20-Окт-2012 00:17 (спустя 7 минут)

[Цитировать] 

18884
18883Может кто проверит(
Ндя.... Было бы кого проверять!
тоисть?
[Торрент-статистика]
[Профиль]  [ЛС] 

nova1980

Пол:

Стаж: 6 лет

Сообщений: 818

Репутация: 523 [+] [-]

Откуда: Одесса Мама

Пост 20-Окт-2012 01:22 (спустя 1 час 5 минут)

[Цитировать] 

Ну, проверять надо работу новичков, а не труд ветеранов и "Волков" в своем деле! bf

_________________
Мои Раздачи
[Торрент-статистика]
[Профиль]  [ЛС] 

Волк ®

Пол:

Стаж: 6 лет 1 месяц

Сообщений: 692

Репутация: 297 [+] [-]

Откуда: Армения

Пост 20-Окт-2012 11:03 (спустя 9 часов)

[Цитировать] 

18890Ну, проверять надо работу новичков, а не труд ветеранов и "Волков" в своем деле! bf
bk
[Торрент-статистика]
[Профиль]  [ЛС] 

Волк ®

Пол:

Стаж: 6 лет 1 месяц

Сообщений: 692

Репутация: 297 [+] [-]

Откуда: Армения

Пост 11-Ноя-2012 00:14 (спустя 21 день)

[Цитировать] 

Незнаю кому но спасибо!!! aa
[Торрент-статистика]
[Профиль]  [ЛС] 

TYAnCE

Пол:

Стаж: 5 лет 11 месяцев

Сообщений: 269

Репутация: 65 [+] [-]

Откуда: Туапсе

Пост 11-Ноя-2012 01:19 (спустя 1 час 4 минуты)

[Цитировать] 

Волк,
ah мимо пробегала... щас ток в лс чиркануть хотела с челобитной ah

_________________
[Торрент-статистика]
[Профиль]  [ЛС] 

Волк ®

Пол:

Стаж: 6 лет 1 месяц

Сообщений: 692

Репутация: 297 [+] [-]

Откуда: Армения

Пост 11-Ноя-2012 15:35 (спустя 14 часов)

[Цитировать] 

TYAnCE, bx
[Торрент-статистика]
[Профиль]  [ЛС] 

portegro

Пол:

Стаж: 5 лет 8 месяцев

Сообщений: 11

Репутация: 11 [+] [-]

Пост 09-Дек-2012 20:29 (спустя 28 дней)

[Цитировать] 

Всем привет! Встаньте кто нибудь на раздачу - не качается почему-то((((

_________________
[Торрент-статистика]
[Профиль]  [ЛС] 

3232fox

Пол:

Стаж: 4 года 9 месяцев

Сообщений: 614

Репутация: 423 [+] [-]

Откуда: Крым,Россия

Пост 11-Апр-2013 00:03 (спустя 4 месяца 1 день)

[Цитировать] 

Добавте 22 серию,2 недели уже прошло после просмотра .
[Торрент-статистика]
[Профиль]  [ЛС] 
Показать сообщения:    
Ответить на тему

Текущее время: Сегодня 16:04

Часовой пояс: GMT + 4



Вы не можете начинать темы
Вы не можете отвечать на сообщения
Вы не можете редактировать свои сообщения
Вы не можете удалять свои сообщения
Вы не можете голосовать в опросах
Вы не можете прикреплять файлы к сообщениям
Вы не можете скачивать файлы