Сверхъестественное / Supernatural / 11 сезон / 1-23 серия из 23 / LostFilm (Филип Сгриккиа, Джеймс Л. Конуэй, Питер Эллис, Джереми Карвер, Роберт Сингер) [2015 г., Ужасы, фэнтези, триллер, драма, детектив, WEB-DLRip]

Ответить на тему
 
Автор
Сообщение

3232fox ®

Пол:

Стаж: 4 года 9 месяцев

Сообщений: 614

Репутация: 423 [+] [-]

Откуда: Крым,Россия

Пост 21-Окт-2015 22:20

[Цитировать] 

-Сверхъестественное / Supernatural/ 11 сезон--Год выпуска: 2015
Страна: США
Жанр: Ужасы, фэнтези, триллер, драма, детектив
Продолжительность: 1 x ~ 00:43:00
Перевод: Профессиональный (многоголосый, закадровый) LostFilm
Режиссер: Филип Сгриккиа, Джеймс Л. Конуэй, Питер Эллис, Джереми Карвер, Роберт Сингер--В ролях: Джаред Падалеки, Дженсен Эклс, Джим Бивер, Миша Коллинз, Марк Шеппард, Джеффри Дин Морган, Женевьев Падалеки, Синди Сэмпсон, Саманта Феррис, Митч--Описание: Зло снова начинает атаку со всех фронтов, а единственными кто способен противостоять, оказываются браться Сэм и Дин, с вида обыкновенные парни, но на самом деле обладающие всеми необходимыми навыками для борьбы со злом. Изначально борцом с потусторонними силами выступает их отец, у которого они впоследствии переняли эстафету. Исчадья ада давно охотятся на братьев, но раз за разом вынуждены испытывать неудачу. Апокалипсиса не избежать, если прекратить противостояние, поэтому главные герои снова принимаются за привычную работу в 11 сезоне сериала. Борьба Добра и Зла вновь набирает обороты.--Тип релиза: WEB-DLRip
Контейнер: AVI
Видео кодек: XviD
Аудио кодек: MP3 (MPEG1 Layer 3)
Видео: 720x400 (1.80:1), 23.976 fps, XviD build 64 ~1500 kbps avg, 0.20 bit/pixel
Аудио: 48 kHz, MPEG Layer 3, 2 ch, ~192.00 kbps avg-- --

Скриншоты

MI

General
Complete name : G:\видео\Supernatural.S11.rus.LostFilm.TV\Supernatural.S11E01.rus.LostFilm.TV.avi
Format : AVI
Format/Info : Audio Video Interleave
File size : 467 MiB
Duration : 42mn 38s
Overall bit rate mode : Variable
Overall bit rate : 1 530 Kbps
Writing application : Nandub v1.0rc2
Writing library : Nandub build 1853/release
Video
ID : 0
Format : MPEG-4 Visual
Format profile : Advanced Simple@L5
Format settings, BVOP : No
Format settings, QPel : No
Format settings, GMC : No warppoints
Format settings, Matrix : Default (H.263)
Codec ID : XVID
Codec ID/Hint : XviD
Duration : 42mn 38s
Bit rate : 1 332 Kbps
Width : 720 pixels
Height : 400 pixels
Display aspect ratio : 16:9
Frame rate : 23.976 fps
Color space : YUV
Chroma subsampling : 4:2:0
Bit depth : 8 bits
Scan type : Progressive
Compression mode : Lossy
Bits/(Pixel*Frame) : 0.193
Stream size : 406 MiB (87%)
Writing library : XviD 1.2.1 (UTC 2008-12-04)
Audio
ID : 1
Format : MPEG Audio
Format version : Version 1
Format profile : Layer 3
Mode : Joint stereo
Mode extension : MS Stereo
Codec ID : 55
Codec ID/Hint : MP3
Duration : 42mn 38s
Bit rate mode : Variable
Bit rate : 192 Kbps
Channel(s) : 2 channels
Sampling rate : 48.0 KHz
Compression mode : Lossy
Stream size : 56.8 MiB (12%)
Alignment : Aligned on interleaves
Interleave, duration : 24 ms (0.58 video frame)
Interleave, preload duration : 486 ms
Writing library : LAME3.97b
Encoding settings : -m j -V 4 -q 3 -lowpass 18.6 --abr 192


Последний раз редактировалось: 3232fox (2016-06-02 19:35), всего редактировалось 18 раз(а)
[Торрент-статистика]
[Профиль]  [ЛС] 

3232fox ®

Пол:

Стаж: 4 года 9 месяцев

Сообщений: 614

Репутация: 423 [+] [-]

Откуда: Крым,Россия

Пост 28-Окт-2015 22:19 (спустя 6 дней)

[Цитировать] 

конец
[Торрент-статистика]
[Профиль]  [ЛС] 
Показать сообщения:    
Ответить на тему

Текущее время: Сегодня 16:08

Часовой пояс: GMT + 4



Вы не можете начинать темы
Вы не можете отвечать на сообщения
Вы не можете редактировать свои сообщения
Вы не можете удалять свои сообщения
Вы не можете голосовать в опросах
Вы не можете прикреплять файлы к сообщениям
Вы не можете скачивать файлы