Сверхъестественное / Supernatural / Сезон: 9 / Серии: 1-23 из 23 (Джон Шоуолтер / John Showalter, Эрик Крипке / Eric Kripke) [2013-2014 г., ужасы, фэнтези, триллер, драма, детектив, HDTVRip] [DreamRecords]

Ответить на тему
 
Автор
Сообщение

3232fox ®

Пол:

Стаж: 4 года 9 месяцев

Сообщений: 614

Репутация: 423 [+] [-]

Откуда: Крым,Россия

Пост 25-Янв-2014 01:35

[Цитировать] 

Сверхъестественное / Supernatural
Небесная справедливость в действии...
- Год выпуска: 2013-2014
Страна: США
Жанр: триллер, драма, криминал, детектив
Сезон/Серия: сезон 9, серии 1-23 из 23
Продолжительность серии: ~00:45:00 / Серия
Перевод: Любительский (многоголосый, закадровый) [DreamRecords]
Автор перевода: Константин Кривоногов
Текст читали: Владимир Чистохин, Владислав Данилов, Анастасия Флигина
Cубтитры: нет
Режиссер: Джон Шоуолтер / John Showalter, Эрик Крипке / Eric Kripke
Производство: Kripke Enterprises, Supernatural Films, Warner Bros. Television, Wonderland Sound and Vision- -В ролях:
Джаред Падалеки, Дженсен Эклс, Джим Бивер, Миша Коллинз, Марк Шеппард, Марк Пеллегрино, Женевьев Падалеки, Кэти Кэссиди, Джеймс Патрик Стюарт, Саманта Феррис и др.-Описание:
Сериал рассказывает о приключениях братьев Сэма и Дина Винчестеров, которые путешествуют по Соединённым Штатам на чёрном автомобиле Chevrolet Impala 1967 года, расследуют паранормальные явления, многие из которых основаны на американских городских легендах и фольклоре, и сражаются с порождениями зла, такими как демоны и призраки.-Релиз от:

Тип релиза: HDTVRip
Контейнер: AVI
Видео кодек: XviD
Аудио кодек: MP3
Видео: MPEG4, XviD, 720x400 (16:9), 23.976 fps, 1300 Kbps (0.246 bit/pixel)
Аудио: MP3, 2 ch, 192 Кбит/с

Эпизоды

  • Думаю, я здесь приживусь (I Think I'm Gonna Like It Here)
  • А нам все равно (Devil May Care)
  • Я не ангел (I'm No Angel)
  • В гостях у сказки (Slumber Party)
  • Собачий полдень Дина (Dog Dean Afternoon)
  • Небеса не могут ждать (Heaven Can't Wait) PROPER
  • Плохие мальчишки (Bad Boys)
  • Между молотом и наковальней (Rock and a Hard Place)
  • Святой террор (Holy Terror)
  • Большая прогулка (Road Trip)
  • Старший брат (First Born)
  • Острые клыки (Sharp Teeth)
  • Очищение (The Purge)
  • Пленники (Captives)
  • Тонкий человек (Thinman)
  • Бегушие по лезвию (Blade Runners)
  • Mother's Little Helper
  • Meta Fiction
  • Alex Annie Alexis Ann
  • Bloodlines

MI

Format : AVI
Format/Info : Audio Video Interleave
File size : 454 MiB
Duration : 42mn 26s
Overall bit rate : 1 497 Kbps
Writing application : VirtualDubModRus 1.5.10.2 (build 2542/release)
Writing library : VirtualDubMod build 2542/release
Video
ID : 0
Format : MPEG-4 Visual
Format profile : Advanced Simple@L5
Format settings, BVOP : 1
Format settings, QPel : No
Format settings, GMC : No warppoints
Format settings, Matrix : Default (MPEG)
Codec ID : XVID
Codec ID/Hint : XviD
Duration : 42mn 26s
Bit rate : 1 295 Kbps
Width : 720 pixels
Height : 400 pixels
Display aspect ratio : 16:9
Frame rate : 23.976 fps
Color space : YUV
Chroma subsampling : 4:2:0
Bit depth : 8 bits
Scan type : Progressive
Compression mode : Lossy
Bits/(Pixel*Frame) : 0.188
Stream size : 393 MiB (87%)
Writing library : XviD 64
Audio
ID : 1
Format : MPEG Audio
Format version : Version 1
Format profile : Layer 3
Mode : Joint stereo
Codec ID : 55
Codec ID/Hint : MP3
Duration : 42mn 26s
Bit rate mode : Constant
Bit rate : 192 Kbps
Channel(s) : 2 channels
Sampling rate : 48.0 KHz
Compression mode : Lossy
Stream size : 58.3 MiB (13%)
Alignment : Aligned on interleaves
Interleave, duration : 42 ms (1.00 video frame)
Interleave, preload duration : 504 ms

Внимание! Раздача ведётся путём добавления новых серий!

Раздача ведётся путём добавления новых серий; при каждом добавлении создаётся новый торрент. Чтобы начать докачку новой серии, пользователям необходимо сделать следующее:
  • остановить скачивание,
  • удалить старый торрент у себя из клиента (старые серии удалять не надо),
  • скачать новый торрент и запустить его у себя в клиенте вместо старого, при этом указать клиенту путь в старую папку куда и должно происходить скачивание новых серий.
Ваш клиент при этом должен произвести хеширование (проверку) старой папки (если не производит сам - помогите ему сделать это), и будет докачивать только те серии которых у вас ещё нет. Старые серии при этом не удаляются, а продолжают раздаваться!
Eсли вы уже удалили старые серии, то предотвратить повторную закачку старых серий можно, отжав галочку в соответствующих местах при запуске нового торрента. По возможности, желательно не удалять старые серии как можно дольше чтобы релизёр не столько продолжал раздавать старые серии, а смог сконцентрироваться на новых.


Последний раз редактировалось: 3232fox (2014-05-24 18:14), всего редактировалось 7 раз(а)
[Торрент-статистика]
[Профиль]  [ЛС] 

ArtZak

Пол:

Стаж: 6 лет 1 месяц

Сообщений: 2996

Репутация: 1363 [+] [-]

Откуда: Россия

Пост 07-Мар-2014 05:54 (спустя 1 месяц 13 дней)

[Цитировать] 

Добавлена 15 серия.
[Торрент-статистика]
[Профиль]  [ЛС] 

3232fox ®

Пол:

Стаж: 4 года 9 месяцев

Сообщений: 614

Репутация: 423 [+] [-]

Откуда: Крым,Россия

Пост 31-Мар-2014 17:58 (спустя 24 дня)

[Цитировать] 

добавлена 17 серия
[Торрент-статистика]
[Профиль]  [ЛС] 

ArtZak

Пол:

Стаж: 6 лет 1 месяц

Сообщений: 2996

Репутация: 1363 [+] [-]

Откуда: Россия

Пост 19-Апр-2014 14:50 (спустя 18 дней)

[Цитировать] 

Добавлена 18 серия.
[Торрент-статистика]
[Профиль]  [ЛС] 

ArtZak

Пол:

Стаж: 6 лет 1 месяц

Сообщений: 2996

Репутация: 1363 [+] [-]

Откуда: Россия

Пост 27-Апр-2014 09:16 (спустя 7 дней)

[Цитировать] 

Добавлена 19 серия
[Торрент-статистика]
[Профиль]  [ЛС] 

3232fox ®

Пол:

Стаж: 4 года 9 месяцев

Сообщений: 614

Репутация: 423 [+] [-]

Откуда: Крым,Россия

Пост 01-Май-2014 22:34 (спустя 4 дня)

[Цитировать] 

Конец
[Торрент-статистика]
[Профиль]  [ЛС] 
Показать сообщения:    
Ответить на тему

Текущее время: Сегодня 16:03

Часовой пояс: GMT + 4



Вы не можете начинать темы
Вы не можете отвечать на сообщения
Вы не можете редактировать свои сообщения
Вы не можете удалять свои сообщения
Вы не можете голосовать в опросах
Вы не можете прикреплять файлы к сообщениям
Вы не можете скачивать файлы