Сверхъестественное / Supernatural / Сезон: 9 / Серии: 1-23 из 23 (Джон Шоуолтер / John Showalter, Эрик Крипке / Eric Kripke) [2013-2014 г., ужасы, фэнтези, триллер, драма, детектив, WEB-DLRip] [LostFilm] + Original (ENG) + Subs (Rus)

Ответить на тему
 
Автор
Сообщение

3232fox ®

Пол:

Стаж: 4 года 9 месяцев

Сообщений: 614

Репутация: 423 [+] [-]

Откуда: Крым,Россия

Пост 24-Окт-2013 22:34

[Цитировать] 

Сверхъестественное / Supernatural
Небесная справедливость в действии...
- Год выпуска: 2013-2014
Страна: США
Жанр: триллер, драма, криминал, детектив
Сезон/Серия: сезон 9, серии 1-23 из 23
Продолжительность серии: ~00:45:00 / Серия
Перевод: Профессиональный (многоголосый, закадровый) [LostFilm]
Cубтитры: русские (внешние - *.srt)
Оригинальная аудиодорожка: английская
Режиссер: Джон Шоуолтер / John Showalter, Эрик Крипке / Eric Kripke
Производство: Kripke Enterprises, Supernatural Films, Warner Bros. Television, Wonderland Sound and Vision- -В ролях:
Джаред Падалеки, Дженсен Эклс, Джим Бивер, Миша Коллинз, Марк Шеппард, Марк Пеллегрино, Женевьев Падалеки, Кэти Кэссиди, Джеймс Патрик Стюарт, Саманта Феррис и др.
Описание:
Сериал рассказывает о приключениях братьев Сэма и Дина Винчестеров, которые путешествуют по Соединённым Штатам на чёрном автомобиле Chevrolet Impala 1967 года, расследуют паранормальные явления, многие из которых основаны на американских городских легендах и фольклоре, и сражаются с порождениями зла, такими как демоны и призраки.

Тип релиза: WEB-DLRip | Сэмпл
Контейнер: AVI
Видео кодек: XviD
Аудио кодек: MP3
Видео: MPEG4, XviD, 720x400 (16:9), 23.976 fps, 1 400 Kbps (0.203 bit/pixel)
Аудио #1: MP3, 48.0 KHz, 2 ch, 192 Kbps, CBR / Русский
Аудио #2: MP3, 48.0 KHz, 2 ch, 192 Kbps, CBR / Английский

Эпизоды

  • Думаю, я здесь приживусь (I Think I'm Gonna Like It Here)
  • А нам все равно (Devil May Care)
  • Я не ангел (I'm No Angel)
  • В гостях у сказки (Slumber Party)
  • Собачий полдень Дина (Dog Dean Afternoon)
  • Небеса не могут ждать (Heaven Can't Wait) PROPER
  • Плохие мальчишки (Bad Boys)
  • Между молотом и наковальней (Rock and a Hard Place)
  • Святой террор (Holy Terror)
  • Большая прогулка (Road Trip)
  • Старший брат (First Born)
  • Острые клыки (Sharp Teeth)
  • Очищение (The Purge)
  • Пленники (Captives)

MI

Код:
General
Complete name                            : E:\downloads\Supernatural.S09.rus.LostFilm\Supernatural.S09E01.rus.LostFilm.TV.avi
Format                                   : AVI
Format/Info                              : Audio Video Interleave
File size                                : 547 MiB
Duration                                 : 42mn 33s
Overall bit rate                         : 1 798 Kbps
Writing application                      : VirtualDubMod 1.5.10.1 (build 2366/release)
Writing library                          : VirtualDubMod build 2366/release
Video
ID                                       : 0
Format                                   : MPEG-4 Visual
Format profile                           : Simple@L3
Format settings, BVOP                    : No
Format settings, QPel                    : No
Format settings, GMC                     : No warppoints
Format settings, Matrix                  : Default (H.263)
Codec ID                                 : XVID
Codec ID/Hint                            : XviD
Duration                                 : 42mn 33s
Bit rate                                 : 1 400 Kbps
Width                                    : 720 pixels
Height                                   : 400 pixels
Display aspect ratio                     : 16:9
Frame rate                               : 23.976 fps
Color space                              : YUV
Chroma subsampling                       : 4:2:0
Bit depth                                : 8 bits
Scan type                                : Progressive
Compression mode                         : Lossy
Bits/(Pixel*Frame)                       : 0.203
Stream size                              : 426 MiB (78%)
Writing library                          : XviD 1.2.1 (UTC 2008-12-04)
Audio #1
ID                                       : 1
Format                                   : MPEG Audio
Format version                           : Version 1
Format profile                           : Layer 3
Mode                                     : Joint stereo
Mode extension                           : MS Stereo
Codec ID                                 : 55
Codec ID/Hint                            : MP3
Duration                                 : 42mn 33s
Bit rate mode                            : Constant
Bit rate                                 : 192 Kbps
Channel count                            : 2 channels
Sampling rate                            : 48.0 KHz
Compression mode                         : Lossy
Stream size                              : 58.4 MiB (11%)
Alignment                                : Aligned on interleaves
Interleave, duration                     : 42 ms (1.00 video frame)
Interleave, preload duration             : 504 ms
Writing library                          : LAME3.97 (beta)
Audio #2
ID                                       : 2
Format                                   : MPEG Audio
Format version                           : Version 1
Format profile                           : Layer 3
Mode                                     : Joint stereo
Mode extension                           : MS Stereo
Codec ID                                 : 55
Codec ID/Hint                            : MP3
Duration                                 : 42mn 33s
Bit rate mode                            : Constant
Bit rate                                 : 192 Kbps
Channel count                            : 2 channels
Sampling rate                            : 48.0 KHz
Compression mode                         : Lossy
Stream size                              : 58.4 MiB (11%)
Alignment                                : Aligned on interleaves
Interleave, duration                     : 42 ms (1.00 video frame)
Interleave, preload duration             : 504 ms

Скриншоты




Внимание! Раздача ведётся путём добавления новых серий!

Раздача ведётся путём добавления новых серий; при каждом добавлении создаётся новый торрент. Чтобы начать докачку новой серии, пользователям необходимо сделать следующее:
  • остановить скачивание,
  • удалить старый торрент у себя из клиента (старые серии удалять не надо),
  • скачать новый торрент и запустить его у себя в клиенте вместо старого, при этом указать клиенту путь в старую папку куда и должно происходить скачивание новых серий.
Ваш клиент при этом должен произвести хеширование (проверку) старой папки (если не производит сам - помогите ему сделать это), и будет докачивать только те серии которых у вас ещё нет. Старые серии при этом не удаляются, а продолжают раздаваться!
Eсли вы уже удалили старые серии, то предотвратить повторную закачку старых серий можно, отжав галочку в соответствующих местах при запуске нового торрента. По возможности, желательно не удалять старые серии как можно дольше чтобы релизёр не столько продолжал раздавать старые серии, а смог сконцентрироваться на новых.


Последний раз редактировалось: 3232fox (2014-05-25 20:05), всего редактировалось 21 раз(а)
[Торрент-статистика]
[Профиль]  [ЛС] 

3232fox ®

Пол:

Стаж: 4 года 9 месяцев

Сообщений: 614

Репутация: 423 [+] [-]

Откуда: Крым,Россия

Пост 28-Окт-2013 22:14 (спустя 3 дня)

[Цитировать] 

Добавлена 3 серия
[Торрент-статистика]
[Профиль]  [ЛС] 

3232fox ®

Пол:

Стаж: 4 года 9 месяцев

Сообщений: 614

Репутация: 423 [+] [-]

Откуда: Крым,Россия

Пост 03-Ноя-2013 16:14 (спустя 5 дней)

[Цитировать] 

Добавлена 10 серия


Последний раз редактировалось: 3232fox (2014-01-21 01:12), всего редактировалось 2 раз(а)
[Торрент-статистика]
[Профиль]  [ЛС] 

nova1980

Пол:

Стаж: 6 лет

Сообщений: 818

Репутация: 523 [+] [-]

Откуда: Одесса Мама

Пост 01-Дек-2013 20:31 (спустя 28 дней)

[Цитировать] 

3232fox, В названии не забывайте менять правильно количество серий.. Я исправил.

_________________
Мои Раздачи
[Торрент-статистика]
[Профиль]  [ЛС] 

3232fox ®

Пол:

Стаж: 4 года 9 месяцев

Сообщений: 614

Репутация: 423 [+] [-]

Откуда: Крым,Россия

Пост 01-Дек-2013 22:49 (спустя 2 часа 17 минут)

[Цитировать] 

386803232fox, В названии не забывайте менять правильно количество серий.. Я исправил.
Забыл извиняюсь
[Торрент-статистика]
[Профиль]  [ЛС] 

ArtZak

Пол:

Стаж: 6 лет 1 месяц

Сообщений: 2996

Репутация: 1363 [+] [-]

Откуда: Россия

Пост 23-Янв-2014 10:00 (спустя 1 месяц 21 день)

[Цитировать] 

38680В названии не забывайте менять правильно количество серий.. Я исправил.
А я всю раздачу на свой лад переделал, т. к . смотрю сериал сам ab
[Торрент-статистика]
[Профиль]  [ЛС] 

3232fox ®

Пол:

Стаж: 4 года 9 месяцев

Сообщений: 614

Репутация: 423 [+] [-]

Откуда: Крым,Россия

Пост 27-Янв-2014 16:32 (спустя 4 дня)

[Цитировать] 

Добавлена 11 серия
[Торрент-статистика]
[Профиль]  [ЛС] 

ArtZak

Пол:

Стаж: 6 лет 1 месяц

Сообщений: 2996

Репутация: 1363 [+] [-]

Откуда: Россия

Пост 03-Фев-2014 21:57 (спустя 7 дней)

[Цитировать] 

Добавлена 12 серия
[Торрент-статистика]
[Профиль]  [ЛС] 

ArtZak

Пол:

Стаж: 6 лет 1 месяц

Сообщений: 2996

Репутация: 1363 [+] [-]

Откуда: Россия

Пост 08-Фев-2014 22:59 (спустя 5 дней)

[Цитировать] 

Добавлена 13 серия
[Торрент-статистика]
[Профиль]  [ЛС] 

ArtZak

Пол:

Стаж: 6 лет 1 месяц

Сообщений: 2996

Репутация: 1363 [+] [-]

Откуда: Россия

Пост 02-Мар-2014 14:16 (спустя 21 день)

[Цитировать] 

Добавлена 14 серия
[Торрент-статистика]
[Профиль]  [ЛС] 

3232fox ®

Пол:

Стаж: 4 года 9 месяцев

Сообщений: 614

Репутация: 423 [+] [-]

Откуда: Крым,Россия

Пост 23-Мар-2014 12:35 (спустя 20 дней)

[Цитировать] 

Добавлена 18 серия
[Торрент-статистика]
[Профиль]  [ЛС] 

ArtZak

Пол:

Стаж: 6 лет 1 месяц

Сообщений: 2996

Репутация: 1363 [+] [-]

Откуда: Россия

Пост 27-Апр-2014 09:14 (спустя 1 месяц 3 дня)

[Цитировать] 

Добавлена 19 серия
[Торрент-статистика]
[Профиль]  [ЛС] 

3232fox ®

Пол:

Стаж: 4 года 9 месяцев

Сообщений: 614

Репутация: 423 [+] [-]

Откуда: Крым,Россия

Пост 06-Май-2014 01:05 (спустя 8 дней)

[Цитировать] 

Добавлена 23 серия
[Торрент-статистика]
[Профиль]  [ЛС] 
Показать сообщения:    
Ответить на тему

Текущее время: Сегодня 23:44

Часовой пояс: GMT + 4



Вы не можете начинать темы
Вы не можете отвечать на сообщения
Вы не можете редактировать свои сообщения
Вы не можете удалять свои сообщения
Вы не можете голосовать в опросах
Вы не можете прикреплять файлы к сообщениям
Вы не можете скачивать файлы