Сверхъестественное / Supernatural / 10 сезон / 1-23 серия из 23 / LostFilm (Филип Сгриккиа, Джеймс Л. Конуэй, Дженсен Эклс) [2014 г., Триллер, драма, ужасы, детектив, WEB-DLRip] [LostFilm]

Ответить на тему
 
Автор
Сообщение

3232fox ®

Пол:

Стаж: 4 года 9 месяцев

Сообщений: 614

Репутация: 423 [+] [-]

Откуда: Крым,Россия

Пост 16-Ноя-2014 23:56

[Цитировать] 

-Сверхъестественное / Supernatural / 10 сезон -Год выпуска: 2014
Страна: США
Жанр: Триллер, драма, ужасы, детектив
Продолжительность: ~ 00:43:00 серия 1-23 из 23
Перевод: Профессиональный (многоголосый, закадровый) LostFilm-Режиссер: Филип Сгриккиа, Джеймс Л. Конуэй, Дженсен Эклс-В ролях: Джаред Падалеки, Дженсен Эклс, Джим Бивер, Миша Коллинз, Джеффри Дин Морган, Женевьев Падалеки, Марк Шеппард, Синди Сэмпсон, Саманта Феррис, Митч Пилледжи-Описание: Сериал рассказывает о приключениях братьев Сэма и Дина Винчестеров, которые путешествуют по Соединённым Штатам на чёрном автомобиле Chevrolet Impala 1967 года, расследуют паранормальные явления, многие из которых основаны на американских городских легендах и фольклоре, и сражаются с порождениями зла, такими как демоны и призраки. Как братья Винчестеры в очередной раз собираются спасти планету от бессмертных тварей, увидите в 10 сезоне сериала "Сверхъестественное".-Тип релиза: WEB-DLRip
Контейнер: AVI
Видео кодек: XviD
Аудио кодек: MP3 (MPEG1 Layer 3)
Видео: MPEG4, XviD, 720x400 (16:9), 23.976 fps, 1 400 Kbps (0.161 bit/pixel)
Аудио: mp3, 2 ch, 192 kbps, 48.0 KHz- - -

MI

General
Complete name : G:\видео\Сверхъестественное (S10) LF\Supernatural.S10E01.rus.LostFilm.TV.avi
Format : AVI
Format/Info : Audio Video Interleave
File size : 398 MiB
Duration : 42mn 22s
Overall bit rate : 1 313 Kbps
Writing application : Nandub v1.0rc2
Writing library : Nandub build 1853/release
Video
ID : 0
Format : MPEG-4 Visual
Format profile : Advanced Simple@L5
Format settings, BVOP : No
Format settings, QPel : No
Format settings, GMC : No warppoints
Format settings, Matrix : Default (H.263)
Codec ID : XVID
Codec ID/Hint : XviD
Duration : 42mn 22s
Bit rate : 1 113 Kbps
Width : 720 pixels
Height : 400 pixels
Display aspect ratio : 16:9
Frame rate : 23.976 fps
Color space : YUV
Chroma subsampling : 4:2:0
Bit depth : 8 bits
Scan type : Progressive
Compression mode : Lossy
Bits/(Pixel*Frame) : 0.161
Stream size : 337 MiB (85%)
Writing library : XviD 1.2.1 (UTC 2008-12-04)
Audio
ID : 1
Format : MPEG Audio
Format version : Version 1
Format profile : Layer 3
Mode : Joint stereo
Mode extension : MS Stereo
Codec ID : 55
Codec ID/Hint : MP3
Duration : 42mn 22s
Bit rate mode : Variable
Bit rate : 192 Kbps
Channel(s) : 2 channels
Sampling rate : 48.0 KHz
Compression mode : Lossy
Stream size : 56.7 MiB (14%)
Alignment : Aligned on interleaves
Interleave, duration : 24 ms (0.58 video frame)
Interleave, preload duration : 533 ms
Writing library : LAME3.97b
Encoding settings : -m j -V 4 -q 3 -lowpass 18.6 --abr 192

Скриншоты



Последний раз редактировалось: 3232fox (2015-07-19 23:11), всего редактировалось 26 раз(а)
[Торрент-статистика]
[Профиль]  [ЛС] 

3232fox ®

Пол:

Стаж: 4 года 9 месяцев

Сообщений: 614

Репутация: 423 [+] [-]

Откуда: Крым,Россия

Пост 26-Ноя-2014 18:05 (спустя 9 дней)

[Цитировать] 

Конец
[Торрент-статистика]
[Профиль]  [ЛС] 
Показать сообщения:    
Ответить на тему

Текущее время: Сегодня 16:14

Часовой пояс: GMT + 4



Вы не можете начинать темы
Вы не можете отвечать на сообщения
Вы не можете редактировать свои сообщения
Вы не можете удалять свои сообщения
Вы не можете голосовать в опросах
Вы не можете прикреплять файлы к сообщениям
Вы не можете скачивать файлы