Сверхъестественное / Supernatural / Сезон: 9 / Серии: 1-12 из 23 (Филип Сгриккиа / Philip Sgriccia, Джеймс Л. Конуэй / James L. Conway) [2013, Фантастика, мистика, ужасы, триллер, драма, HDTVRip] MVO (Kerob)

Ответить на тему
 
Автор
Сообщение

Волк ®

Пол:

Стаж: 6 лет 1 месяц

Сообщений: 692

Репутация: 297 [+] [-]

Откуда: Армения

Пост 10-Окт-2013 20:53

[Цитировать] 

Сверхъестественное / Supernatural- Год выпуска: 2013
Страна: США
Жанр: Фантастика, мистика, ужасы, триллер, драма
Продолжительность: 0:42:36
Перевод: Любительский (Одноголосый закадровый) [Kerob]
Русские субтитры: нет-Режиссёр: Филип Сгриккиа / Philip Sgriccia, Джеймс Л. Конуэй / James L. Conway-В ролях: Джаред Падалеки / Jared Padalecki, Дженсен Эклс / Jensen Ackles, Джим Бивер / Jim Beaver, Миша Коллинз / Misha Collins, Марк Шеппард / Mark Sheppard, Ти Олссон / Ty Olsson.-Описание: Сериал рассказывает о приключениях братьев Сэма и Дина Винчестеров, которые путешествуют по Соединённым Штатам на чёрном автомобиле Chevrolet Impala 1967 года, расследуют паранормальные явления, многие из которых основаны на американских городских легендах и фольклоре, и сражаются с порождениями зла, такими как демоны и призраки-Сэмпл: http://multi-up.com/911625-Качество: HDTVRip
Формат: AVI
Видео кодек: XviD
Аудио кодек: MP3
Видео: Xvid 720x400 23.976fps
Аудио: MP3 48000Hz stereo 192kbps
Субтитры: отсутствуют-

MediaInfo

General
Complete name : H:\Video\Сериалы\СВЕРХЪЕСТЕСТВЕННОЕ\Сверъестественное. Девятый сезон\Supernatural.S09E01.L1.HDTVRip.Kerob.avi
Format : AVI
Format/Info : Audio Video Interleave
File size : 419 MiB
Duration : 42mn 36s
Overall bit rate : 1 375 Kbps
Writing application : VirtualDubMod 1.5.10.2 (build 2540/release)
Writing library : VirtualDubMod build 2540/release
Video
ID : 0
Format : MPEG-4 Visual
Format profile : Advanced Simple@L5
Format settings, BVOP : 2
Format settings, QPel : No
Format settings, GMC : No warppoints
Format settings, Matrix : Default (MPEG)
Codec ID : XVID
Codec ID/Hint : XviD
Duration : 42mn 36s
Bit rate : 1 173 Kbps
Width : 720 pixels
Height : 400 pixels
Display aspect ratio : 16:9
Frame rate : 23.976 fps
Color space : YUV
Chroma subsampling : 4:2:0
Bit depth : 8 bits
Scan type : Progressive
Compression mode : Lossy
Bits/(Pixel*Frame) : 0.170
Stream size : 358 MiB (85%)
Writing library : XviD 1.2.1 (UTC 2008-12-04)
Audio
ID : 1
Format : MPEG Audio
Format version : Version 1
Format profile : Layer 3
Mode : Joint stereo
Codec ID : 55
Codec ID/Hint : MP3
Duration : 42mn 36s
Bit rate mode : Constant
Bit rate : 192 Kbps
Channel count : 2 channels
Sampling rate : 48.0 KHz
Compression mode : Lossy
Stream size : 58.5 MiB (14%)
Alignment : Aligned on interleaves
Interleave, duration : 42 ms (1.00 video frame)
Interleave, preload duration : 504 ms
-

Скриншоты



Последний раз редактировалось: Волк (2014-02-03 22:20), всего редактировалось 2 раз(а)
[Торрент-статистика]
[Профиль]  [ЛС] 

Волк ®

Пол:

Стаж: 6 лет 1 месяц

Сообщений: 692

Репутация: 297 [+] [-]

Откуда: Армения

Пост 16-Окт-2013 20:42 (спустя 5 дней)

[Цитировать] 

Добавлена 12 серия.
[Торрент-статистика]
[Профиль]  [ЛС] 

ArtZak

Пол:

Стаж: 6 лет 1 месяц

Сообщений: 2996

Репутация: 1363 [+] [-]

Откуда: Россия

Пост 03-Фев-2014 22:29 (спустя 3 месяца 18 дней)

[Цитировать] 

Волк, кубиков не хватает, да и 720-к ab
[Торрент-статистика]
[Профиль]  [ЛС] 

Волк ®

Пол:

Стаж: 6 лет 1 месяц

Сообщений: 692

Репутация: 297 [+] [-]

Откуда: Армения

Пост 03-Фев-2014 23:50 (спустя 1 час 21 минута)

[Цитировать] 

ArtZak, Всмысле кубиков? bk
[Торрент-статистика]
[Профиль]  [ЛС] 

ArtZak

Пол:

Стаж: 6 лет 1 месяц

Сообщений: 2996

Репутация: 1363 [+] [-]

Откуда: Россия

Пост 04-Фев-2014 00:18 (спустя 28 минут)

[Цитировать] 

Волк, озвучки кубик в кубе ab
[Торрент-статистика]
[Профиль]  [ЛС] 

Волк ®

Пол:

Стаж: 6 лет 1 месяц

Сообщений: 692

Репутация: 297 [+] [-]

Откуда: Армения

Пост 04-Фев-2014 21:04 (спустя 20 часов)

[Цитировать] 

ArtZak, Ааааа понятно bk
[Торрент-статистика]
[Профиль]  [ЛС] 
Показать сообщения:    
Ответить на тему

Текущее время: Сегодня 05:53

Часовой пояс: GMT + 4



Вы не можете начинать темы
Вы не можете отвечать на сообщения
Вы не можете редактировать свои сообщения
Вы не можете удалять свои сообщения
Вы не можете голосовать в опросах
Вы не можете прикреплять файлы к сообщениям
Вы не можете скачивать файлы